アットウィキロゴ
Wuv U
kors k

EXTREME

Level: 10.0
BPM: 173
Notes: 631

1
口口口口 |----|
口口口口 |----|
口口口口 |----|
口口口口 |----|
2
⑥①口口 |①---|
口⑤口口 |②-③-|
④②口口 |--④-|
③口口口 |⑤-⑥-|
3
口口①⑧ |①-②-|
口口口⑦ |③-④-|
口②口⑥ |⑤-⑥-|
口③④⑤ |⑦-⑧-|
4
⑥①口口 |①---|
口⑤口口 |②-③-|
④②口口 |--④-|
③口口口 |⑤-⑥-|
5
口口①⑧ |①-②-|
口口口⑦ |③-④-|
口②口⑥ |⑤-⑥-|
口③④⑤ |⑦-⑧-|
6
⑥①口口 |①---|
口⑤口口 |②-③-|
④②口口 |--④-|
③口口口 |⑤-⑥-|
7
口口①⑧ |①-②-|
口口口⑦ |③-④-|
口②口⑥ |⑤-⑥-|
口③④⑤ |⑦-⑧-|
8
⑥①口口 |①---|
口⑤口口 |②-③-|
④②口口 |--④-|
③口口口 |⑤-⑥-|
9
⑦口①口 |①---|
⑥口口① |--②③|
⑤口口口 |④-⑤-|
④③②口 |⑥-⑦-|
10
口口口① |①---|
口口口口 |②-③-|
口口口③
口口口②

⑤口⑤⑥
口⑤口④
口口口口 |④---|
口口口口 |⑤-⑥-|
11
口⑥口⑥ |--①②|
⑤口⑥口 |③-④-|
④口口口 |⑤---|
③②①口 |⑥---|
12
⑥口⑥⑦ |①-②-|
口⑥口口 |③-④-|
④⑤口口 |⑤---|
口③②① |⑥-⑦-|
13
⑤⑥⑤⑥ |--①②|
口⑤⑥口 |③-④-|
④口口口 |⑤---|
③②①口 |⑥---|
14
⑤口⑤⑥ |①---|
口⑤口④ |②-③-|
口口口③ |④---|
①口口② |⑤-⑥-|
15
口⑥口⑥ |--①②|
⑤口⑥口 |③-④-|
④口口口 |⑤---|
③②①口 |⑥---|
16
口口口口 |①-②-|
口①口口 |③-④-|
口口②口
④口口③

⑦⑧⑦⑧
口⑦⑥口
口⑤口口 |⑤-⑥-|
口口口口 |⑦-⑧-|
17
④口口口 |--①-|
②口口② |--②-|
③口口③ |③---|
口①①口 |④---|
18
④②口② |①---|
口①口口 |②---|
口③②⑤ |③-④-|
①⑥①口 |⑤-⑥-|
19
⑦⑤③① |①②③④|
⑧⑥④② |⑤⑥⑦⑧|
口口口口
口口口口

口口口⑫
口口口口
⑬口口⑨ |⑨⑩⑪-|
口⑪口⑩ |⑫-⑬-|
20
口⑧⑤口 |①-②-|
④②口③ |③-④-|
口①②口 |⑤-⑥-|
⑦口①⑥ |⑦-⑧-|
21
③⑦②⑥ |①---|
⑦②口② |②---|
①口④① |③④⑤⑥|
⑤口①口 |⑦---|
22
②口②④ |①---|
口口①口 |②---|
⑤②③口 |③-④-|
口①⑥① |⑤-⑥-|
23
①③⑤⑦ |①②③④|
②④⑥⑧ |⑤⑥⑦⑧|
口口口口
口口口口

⑫口口口
口口口口
⑨口口⑬ |⑨⑩⑪-|
⑩口⑪口 |⑫-⑬-|
24
口⑤⑧口 |①-②-|
③口②④ |③-④-|
口②①口 |⑤-⑥-|
⑥①口⑦ |⑦-⑧-|
25
⑥②⑦③ |①---|
②口②⑦ |②---|
①④口① |③④⑤⑥|
口①口⑤ |⑦---|
26
⑥②口② |①---|
②⑤②口 |②---|
口口③口 |③-④-|
口①①④ |⑤-⑥-|
27
⑪⑨⑦⑤ |①②③④|
⑩口口③ |⑤⑥⑦⑧|
⑧⑫口① |⑨⑩⑪-|
⑥④②⑬ |⑫-⑬-|
28
④口②③ |①-②-|
口②口口 |③-④-|
口口①口
口①口口

口⑤⑧口
口口口口
口口口口 |⑤-⑥-|
⑥口口⑦ |⑦-⑧-|
29
口②口⑤ |①---|
②⑥②⑦ |②---|
口①③① |③④⑤⑥|
④⑦①口 |⑦---|
30
①③①③ |①-②-|
口口口口 |--③-|
口口口口
口口口②

⑤口⑤口
口口口口
口口口口 |④---|
④口口⑥ |⑤-⑥-|
31
④①④① |--①-|
口④⑤④ |②---|
口口口口 |③---|
②③③口 |④-⑤-|
32
口④口⑧ |①-②-|
②口⑥口 |③-④-|
口口口口 |⑤-⑥-|
①③⑤⑦ |⑦-⑧-|
33
⑤②④口 |①-②-|
⑧⑦⑥口 |③-④-|
①②④③ |⑤-⑥⑦|
口①③口 |⑧---|
34
口口口① |①---|
口口⑥⑤ |②--③|
口口③④ |-④--|
口口口② |⑤-⑥-|
35
口口口① |①---|
口口⑥⑤ |②--③|
口口③④ |-④--|
口口口② |⑤-⑥-|
36
口口②口 |①---|
口口⑥⑤ |②--③|
口口③④ |-④--|
口口①口 |⑤-⑥-|
37
口口口② |①---|
口口⑥⑤ |②--③|
口口③④ |-④--|
口口口① |⑤-⑥-|
38
⑨口口① |①---|
口⑧⑨⑦ |②-③④|
⑥②④⑤ |-⑤⑥-|
③口口② |⑦⑧⑨-|
39
⑧①口① |①---|
口⑦⑧⑦ |②-③④|
⑥②④⑤ |-⑤⑥-|
③口口② |⑦-⑧-|
40
⑧①②口 |①---|
口⑦⑧⑦ |②-③④|
⑥②④⑤ |-⑤⑥-|
③口①口 |⑦-⑧-|
41
⑧①口② |①---|
⑦口口口 |②-③④|
⑥口口口 |⑤-⑥-|
⑤④③① |⑦-⑧-|
42
口②④① |①-②-|
口口口口 |③-④-|
口口口④
口口口③

口口口⑦
口⑦⑥⑤
口口口口 |⑤-⑥-|
口口口口 |--⑦-|
43
口①④口 |--①②|
⑤⑦⑥口 |③-④-|
④口口口 |⑤-⑥-|
③②①口 |--⑦-|
44
口②④⑧ |①-②-|
口⑧⑥⑦ |③-④-|
④⑤口口 |⑤-⑥-|
口③②① |⑦-⑧-|
45
口①④口 |--①②|
⑤口口口 |③-④-|
④口口口 |⑤---|
③②①口 |----|
46
③口口口 |①---|
②口口口 |②-③-|
口口口①
口口①口

口④口④
口④④④
口口④口 |④---|
口口⑤口 |⑤---|
47
④口④③ |①---|
④④④② |②-③-|
①④口口 |④---|
⑤①口口 |--⑤-|
48
③⑤④口 |①-②-|
口⑦⑥② |③---|
③口②① |④⑤⑥⑦|
⑨口①⑧ |⑧-⑨-|
49
口口口① |①---|
口口口③ |②-③④|
口②④口
口口口口

⑥口口⑧
口口口口
口口口⑦ |⑤-⑥-|
口口口⑤ |⑦-⑧-|
50
⑤⑥⑤口 |①---|
口①口口 |②-③-|
⑤②③④ |④---|
①②③④ |⑤-⑥-|
51
口⑥口⑥ |--①②|
④口口① |③-④-|
口口②⑥ |⑤---|
⑤⑤口③ |⑥---|
52
口口口口 |①-②-|
口口口① |③-④-|
①②③口
口口口④

⑥⑦⑥口
口口口口
⑥口口口 |⑤---|
⑤口⑤口 |⑥-⑦-|
53
⑤⑥⑤⑥ |--①②|
④口口① |③-④-|
⑤口②⑥ |⑤---|
口口口③ |⑥---|
54
⑤⑥⑤口 |①---|
口①口口 |②-③-|
⑤②③④ |④---|
①②③④ |⑤-⑥-|
55
口⑥口⑥ |--①②|
④口口① |③-④-|
口口②⑥ |⑤---|
⑤⑤口③ |⑥---|
56
①口①口 |①-②-|
②②③③ |③-④-|
口④④口
口口口口

⑦⑤⑦⑤
口口口口
⑦口口⑧ |⑤-⑥-|
口⑥⑥⑧ |⑦-⑧-|
57
③⑤③⑤ |----|
口④⑥② |--①②|
③口①⑤ |③-④-|
口口口口 |⑤-⑥-|
58
⑥⑦⑥⑤ |①-②-|
口口口口 |③-④-|
⑥④⑤口 |⑤---|
①②③① |⑥-⑦-|
59
口⑦⑥⑦ |①-②③|
④口口⑤ |④-⑤-|
口③口⑦ |⑥---|
②⑥①口 |⑦---|
60
①口口口 |①-②③|
口口口② |④-⑤⑥|
口⑥③口
⑤口口④

⑨⑩⑨口
⑦口口口
⑨口口口 |⑦-⑧-|
口口⑧口 |⑨-⑩-|
61
口口口① |①-②③|
④口⑤① |④-⑤-|
口③口口
②口口口

⑥⑦⑥⑦
口口口口
⑥口口⑦ |⑥---|
口口口口 |⑦---|
62
⑥⑦⑥⑥ |①-②-|
口口口③ |③-④-|
⑥④⑤⑤ |⑤---|
①②③① |⑥-⑦-|
63
口⑦⑦⑦ |①-②③|
④口④口 |④-⑤-|
口③⑥⑦ |⑥---|
②⑤①口 |⑦---|
64
口口口口 |①-②-|
④口口④ |③-④-|
口口口口
①③②①

口⑧口口
口⑤⑥口
⑦口口⑦ |⑤-⑥-|
口口⑧口 |⑦-⑧-|
65
③口①① |--①-|
③口口口 |②-③-|
⑤口口④ |④---|
②②口④ |⑤---|
66
口①口① |①---|
口①①① |----|
口口①口 |----|
口口口口 |----|

accuracy: 100%
最終更新:2022年05月14日 16:25