アットウィキロゴ
廻る季節のゆく先に
中島由貴

BASIC

Level: 2
BPM: 102
Notes: 133

1
口口口口 |(204)----|
口口口口 |----|
口口口口 |----|
口口口口

口口口口
口口口口 |----|
口口口口 |----|
口口口口 |----|
2
口口口口 |①---|
口口①口 |----|
口口口口 |----|
口口口口

口口口口
口口口口 |----|
口口口口 |----|
口口口口 |----|
3
口口口口 |①---|
口①口口 |----|
口口口口 |----|
口口口口

口口口口
口口口口 |----|
口口口口 |----|
口口口口 |----|
4
口口口口 |①---|
口口口口 |----|
口口①口 |----|
口口口口

口口口口
口口口口 |----|
口口口口 |----|
口口口口 |----|
5
口口口口 |①---|
口口口口 |----|
口①口口 |----|
口口口口

口口口口
口口口口 |----|
口口口口 |----|
口口口口 |----|
6
口口口口 |①---|
口口①口 |----|
口口口口 |----|
口口口口

口口口口
口口口口 |----|
口口口口 |----|
口口口口 |----|
7
口口口口 |①---|
口①口口 |----|
口口口口 |----|
口口口口

口口口口
口口口口 |----|
口口口口 |----|
口口口口 |----|
8
口口口口 |①---|
口口口口 |----|
口口①口 |----|
口口口口

口口口口
口口口口 |----|
口口口口 |----|
口口口口 |----|
9
口口口口 |①---|
口口口口 |----|
口①口口 |----|
口口口口

口口口口
口口口口 |----|
口口口口 |----|
口口口口 |----|
10
口口口口 |①---|
口口口口 |----|
口口口① |----|
口口口口

口口口口
口口口口 |----|
口口口口 |----|
口口口口 |----|
11
口口口口 |①---|
口口口① |----|
口口口口 |----|
口口口口

口口口口
口口口口 |----|
口口口口 |----|
口口口口 |----|
12
口口口① |①---|
口口口口 |----|
口口口口 |----|
口口口口

口口口口
口口口口 |----|
口口口口 |----|
口口口口 |----|
13
口口①口 |①---|
口口口口 |----|
口口口口 |----|
口口口口

口口口口
口口口口 |----|
口口口口 |----|
口口口口 |----|
14
口口口口 |①---|
口口①口 |----|
口口口口 |----|
口口口口

口口口口
口口口口 |----|
口口口口 |----|
口口口口 |----|
15
口口口口 |①---|
口口口口 |----|
口口①口 |----|
口口口口

口口口口
口口口口 |----|
口口口口 |----|
口口口口 |----|
16
口口口口 |①---|
口口口口 |----|
①口口口 |----|
口口口口

口口口口
口口口口 |----|
口口口口 |----|
口口口口 |----|
17
口口口口 |①---|
①口口口 |----|
口口口口 |----|
口口口口

口口口口
口口口口 |----|
口口口口 |----|
口口口口 |----|
18
①口口口 |①---|
口口口口 |----|
口口口口 |----|
口口口口

口口口口
口口口口 |----|
口口口口 |----|
口口口口 |----|
19
口①口口 |①---|
口口口口 |----|
口口口口 |----|
口口口口

口口口口
口口口口 |----|
口口口口 |----|
口口口口 |----|
20
口口口口 |①---|
口①口口 |----|
口口口口 |----|
口口口口

口口口口
口口口口 |----|
口口口口 |----|
口口口口 |----|
21
口口口口 |①---|
口口口口 |----|
口①口口 |----|
口口口口

口口口口
口口口口 |----|
口口口口 |----|
口口口口 |----|
22
口口口口 |①---|
口①①口 |----|
口口口口 |----|
口口口口

口口口口
口口口口 |----|
口口口口 |----|
口口口口 |----|
23
口口口口 |----|
口口口口 |----|
口口口口 |----|
口口口口

口口口口
口口口口 |----|
口口口口 |----|
口口口口 |----|
24
①口口口 |①---|
口口口口 |----|
口口口口 |----|
口口口口

口②口口
口口口口 |②---|
口口口口 |----|
口口口口 |----|
25
口口①口 |①---|
口口口口 |----|
口口口口 |----|
口口口口

口口口②
口口口口 |②---|
口口口口 |----|
口口口口 |----|
26
口口口口 |①---|
口口口① |----|
口口口口 |----|
口口口口

口口口口
口口②口 |②---|
口口口口 |----|
口口口口 |----|
27
口口口口 |①---|
口①口口 |----|
口口口口 |----|
口口口口

口口口口
②口口口 |②---|
口口口口 |----|
口口口口 |----|
28
口①①口 |①---|
口口口口 |----|
口口口口 |----|
口口口口

口口口口
口口口口 |----|
口口口口 |----|
口口口口 |----|
29
口口口口 |----|
口口口口 |----|
口口口口 |----|
口口口口

口口口口
口口口口 |----|
口口口口 |----|
口口口口 |----|
30
口口口口 |①---|
口①①口 |----|
口口口口 |----|
口口口口

口口口口
口口口口 |----|
口口口口 |----|
口口口口 |----|
31
口口口口 |----|
口口口口 |----|
口口口口 |----|
口口口口

口口口口
口口口口 |----|
口口口口 |----|
口口口口 |----|
32
口口口① |①---|
口口口口 |----|
口口口口 |----|
口口口口

口口②口
口口口口 |②---|
口口口口 |----|
口口口口 |----|
33
口①口口 |①---|
口口口口 |----|
口口口口 |----|
口口口口

②口口口
口口口口 |②---|
口口口口 |----|
口口口口 |----|
34
口口口口 |①---|
①口口口 |----|
口口口口 |----|
口口口口

口口口口
口②口口 |②---|
口口口口 |----|
口口口口 |----|
35
口口口口 |①---|
口口①口 |----|
口口口口 |----|
口口口口

口口口口
口口口② |②---|
口口口口 |----|
口口口口 |----|
36
口①①口 |①---|
口口口口 |----|
口口口口 |----|
口口口口

口口口口
口②②口 |②---|
口口口口 |----|
口口口口 |----|
37
口口口口 |①---|
口口口口 |----|
口①①口 |----|
口口口口

口口口口
口口口口 |----|
口口口口 |----|
口口口口 |----|
38
口口口口 |①---|
口口口口 |----|
①口口① |----|
口口口口

口口口口
②口口② |②---|
口口口口 |----|
口口口口 |----|
39
口口口口 |①---|
口①①口 |----|
口口口口 |----|
口口口口

口口口口
口口口口 |②---|
口②②口 |----|
口口口口 |----|
40
口口口口 |①---|
口口口口 |----|
①口口① |----|
口口口口

口口口口
②口口② |②---|
口口口口 |----|
口口口口 |----|
41
口口口口 |①---|
口①①口 |----|
口口口口 |----|
口口口口

口口口口
口口口口 |②---|
口②②口 |----|
口口口口 |----|
42
口口口口 |①---|
口口口口 |----|
①口口① |----|
口口口口

口口口口
口口口口 |②---|
口口口口 |----|
口②②口 |----|
43
口口口口 |①---|
口口口口 |----|
口①①口 |----|
口口口口

口口口口
口②②口 |②---|
口口口口 |----|
口口口口 |----|
44
口①①口 |①---|
口口口口 |----|
口口口口 |----|
口口口口

②口口②
口口口口 |②---|
口口口口 |----|
口口口口 |----|
45
口口口口 |①---|
①口口① |----|
口口口口 |----|
口口口口

口口口口
口口口口 |②---|
②口口② |----|
口口口口 |----|
46
口口口口 |①---|
口口口口 |----|
口①①口 |----|
口口口口

口口口口
口②②口 |②---|
口口口口 |----|
口口口口 |----|
47
口口口口 |①---|
①口口① |----|
口口口口 |----|
口口口口

口口口口
口口口口 |②---|
②口口② |----|
口口口口 |----|
48
口口口口 |①---|
口口口口 |----|
口①①口 |----|
口口口口

口口口口
口②②口 |②---|
口口口口 |----|
口口口口 |----|
49
口口口口 |①---|
①口口① |----|
口口口口 |----|
口口口口

口口口口
口口口口 |②---|
②口口② |----|
口口口口 |----|
50
口口口口 |①---|
口口口口 |----|
口①①口 |----|
口口口口

口口口口
口口口口 |----|
口口口口 |----|
口口口口 |----|
51
口口口口 |①---|
口口口口 |----|
口①①口 |----|
口口口口

口口口口
口口口口 |②---|
口口口口 |----|
口②②口 |----|
52
口口口口 |①---|
口口口口 |----|
口口口口 |----|
①口口①

口口口口
口口口口 |②---|
②口口② |----|
口口口口 |----|
53
口口口口 |①---|
①口口① |----|
口口口口 |----|
口口口口

②②②②
口口口口 |②---|
口口口口 |----|
口口口口 |----|
54
口口口口 |①---|
口①①口 |----|
口口口口 |----|
口口口口

口口口口
口口口口 |----|
口口口口 |----|
口口口口 |----|
55
口口①口 |①---|
口口口口 |----|
口口口口 |----|
口口口口

口②口口
口口口口 |②---|
口口口口 |----|
口口口口 |----|
56
口口口口 |①---|
口口①口 |----|
口口口口 |----|
口口口口

口口口口
口②口口 |②---|
口口口口 |----|
口口口口 |----|
57
口口口口 |①---|
口口口① |----|
口口口口 |----|
口口口口

口口口口
口口②口 |②---|
口口口口 |----|
口口口口 |----|
58
口口口口 |①---|
口①口口 |----|
口口口口 |----|
口口口口

口口口口
②口口口 |②---|
口口口口 |----|
口口口口 |----|
59
口口口口 |①---|
口口口口 |----|
①口口口 |----|
口口口口

口口口口
口口口口 |②---|
口②口口 |----|
口口口口 |----|
60
口口口口 |①---|
口口口口 |----|
口口①口 |----|
口口口口

口口口口
口口口口 |②---|
口口口② |----|
口口口口 |----|
61
口口口口 |①---|
口口口① |----|
口口口口 |----|
口口口口

口口口口
口口②口 |②---|
口口口口 |----|
口口口口 |----|
62
口口口口 |①---|
口①口口 |----|
口口口口 |----|
口口口口

口口口口
②口口口 |②---|
口口口口 |----|
口口口口 |----|
63
口口口口 |①---|
口口口口 |----|
①口口口 |----|
口口口口

口口口口
口口口口 |(192)②---|
口②口口 |(180)----|
口口口口 |(168)----|
64
口口口口 |(156)①---|
口口口口 |----|
口口①口 |----|
口口口口

口口口口
口口口口 |----|
口口口口 |----|
口口口口 |----|
65
口口口口 |----|
口口口口 |----|
口口口口 |----|
口口口口

口口口口
口口口口 |----|
口口口口 |----|
口口口口 |----|

accuracy: 100%
最終更新:2024年08月11日 08:05