アットウィキロゴ
廻る季節のゆく先に
中島由貴

ADVANCED

Level: 7
BPM: 102
Notes: 511

1
口口口口 |(204)----|
口口口口 |----|
口口口口 |----|
口口口口

口口口口
口口口口 |----|
口口口口 |----|
口口口口 |----|
2
口口口口 |①-②-|
口①②口 |--③-|
口③④口 |④---|
口口口口

口口口口
口口口⑤ |⑤---|
口口口⑥ |⑥---|
口口口⑦ |⑦---|
3
口口口口 |①-②-|
口①②口 |--③-|
口③④口 |④---|
口口口口

口口口口
⑤口口口 |⑤---|
⑥口口口 |⑥---|
⑦口口口 |⑦---|
4
口口口口 |①-②-|
口①②口 |----|
口③④口 |③-④-|
口口口口

⑨口口⑩
⑦口口⑧ |⑤-⑥-|
⑤口口⑥ |⑦-⑧-|
口口口口 |⑨-⑩-|
5
口①②口 |①-②-|
口③④口 |③-④-|
口⑤⑥口 |⑤-⑥-|
口口口口

⑧口口⑧
⑦口口⑦ |⑦---|
口口口口 |--⑧-|
口口口口 |----|
6
口口口口 |①-②-|
口①②口 |--③-|
口③④口 |④---|
口口口口

⑦⑥⑤口
口口口口 |⑤---|
口口口口 |⑥---|
口口口口 |⑦---|
7
口口口口 |①-②-|
口①②口 |--③-|
口③④口 |④---|
口口口口

口⑤⑥⑦
口口口口 |⑤---|
口口口口 |⑥---|
口口口口 |⑦---|
8
口口口口 |①---|
④口口⑤ |②-③-|
②①①③ |④-⑤-|
口口口口

⑥⑧⑨⑦
口⑩⑪口 |⑥-⑦-|
口口口口 |⑧-⑨-|
口口口口 |⑩-⑪-|
9
口口口口 |①---|
口口口口 |----|
口口口口 |----|
口①①口

口口口口
口口口口 |----|
口口口口 |----|
口②口口 |②---|
10
口口口口 |①---|
口④③② |--②-|
口①口口 |③-④-|
口口口口

口口口口
⑤口口口 |⑤---|
口口口口 |----|
口口⑥口 |⑥---|
11
口口口口 |①---|
②③④口 |--②-|
口口①口 |③-④-|
口口口口

口口口口
口口口⑤ |⑤---|
口口口口 |----|
口⑥口口 |⑥---|
12
口口口口 |①---|
口④③② |--②-|
口①口口 |③-④-|
口口口口

口口口口
⑤口口口 |⑤---|
口口⑥口 |⑥---|
口⑦口口 |⑦---|
13
口口口口 |①---|
口口口口 |----|
①口口口 |----|
口口口口

口口口口
口口③口 |----|
口②口口 |----|
口口口口 |②-③-|
14
口①口口 |①---|
口③口口 |----|
口口②口 |②-③-|
口口口口

口口④口
口口口⑥ |④---|
口⑤口口 |⑤---|
口口口口 |⑥---|
15
①口口口 |①---|
②口口口 |----|
口③口口 |②-③-|
口口口口

口口口口
口口口口 |④---|
口口口⑤ |----|
口口④口 |⑤---|
16
口口口① |①---|
口②③口 |--②-|
口④口口 |③-④-|
口口口口

口口口口
口口口口 |⑤---|
⑥口⑤口 |----|
口口口口 |⑥---|
17
①口口口 |①---|
口③②口 |--②-|
口口④口 |③-④-|
口口口口

口口口口
口口口⑦ |⑤---|
口⑤口⑥ |----|
口口口口 |⑥-⑦-|
18
口口口① |①---|
口②③口 |--②-|
口④口口 |③-④-|
口口口口

口口口⑥
⑦口口口 |⑤---|
口口⑤口 |⑥---|
口口口口 |⑦---|
19
口口口口 |①---|
口口口口 |----|
口口口① |----|
口口口口

口口口口
口口口口 |----|
口③口口 |----|
口口②口 |②-③-|
20
口口口口 |①---|
口口①口 |----|
口口③口 |②-③-|
口②口口

口口⑥⑤
口④口口 |④---|
口口口口 |⑤---|
口口口口 |⑥---|
21
口①口口 |①---|
口口②口 |----|
口③口口 |②-③-|
口口口口

口口口口
口口口口 |④---|
口口口⑤ |----|
口口④口 |⑤---|
22
口①①口 |①---|
口口口口 |--②-|
口②口口 |③---|
口口③口

⑥口口⑦
④口口⑤ |----|
口口口口 |④-⑤-|
口口口口 |⑥-⑦-|
23
口①②口 |①-②-|
口③④口 |③-④-|
口⑤⑥口 |⑤-⑥-|
口口口口

口⑪⑫口
口口口口 |⑦-⑧-|
口口口口 |⑨-⑩-|
⑨⑦⑧⑩ |⑪-⑫-|
24
口口口① |①---|
口②③口 |②-③-|
口口口口 |--④-|
口④口口

⑥口口口
口⑦口口 |⑤---|
口口口口 |⑥---|
口口⑤口 |⑦---|
25
口口口口 |①---|
口口②口 |----|
口③①口 |②-③-|
口口口口

口口口口
⑤口口口 |④---|
⑥口口口 |----|
口口④口 |⑤-⑥-|
26
口口口口 |①---|
口③①口 |②-③-|
口口口口 |--④-|
口②④口

⑤口口⑤
⑥口口⑥ |⑤---|
⑦口口⑦ |⑥---|
口口口口 |⑦---|
27
口口③口 |①---|
口口口口 |②-③-|
口①②口 |--④-|
口④口口

⑤口口⑤
⑥⑦⑦⑥ |⑤---|
口口口口 |⑥---|
口口口口 |⑦---|
28
口口口口 |①---|
口口口口 |----|
②①①③ |②-③-|
口口口口

⑥⑧⑨⑦
④口口⑤ |④-⑤-|
口口口口 |⑥-⑦-|
口口口口 |⑧-⑨-|
29
口口口口 |①---|
口①口口 |②-③-|
④口口⑤ |④-⑤-|
口②③口

⑧口口口
⑥口口口 |⑥---|
口⑦⑦口 |⑦---|
口口口口 |⑧---|
30
口口口① |①---|
口口口口 |----|
口口口口 |②---|
口②②口

⑤口口⑥
③口口④ |----|
口口口口 |③-④-|
口口口口 |⑤-⑥-|
31
口①②口 |①-②-|
口③④口 |③-④-|
口⑤⑥口 |⑤-⑥-|
口口口口

口⑪⑫口
口口口口 |⑦-⑧-|
口口口口 |⑨-⑩-|
⑨⑦⑧⑩ |⑪-⑫-|
32
口口口① |①---|
口②③口 |②-③-|
口口口口 |--④-|
口④口口

口口口口
口⑦口口 |⑤---|
⑥口口口 |⑥---|
口口⑤口 |⑦---|
33
口口①口 |①---|
口口②口 |----|
口③口口 |②-③-|
口口口口

口口口口
口口口口 |④---|
口口⑤⑥ |----|
口口④口 |⑤-⑥-|
34
口口口口 |①---|
③①①③ |②-③-|
口口口口 |--④-|
口④②口

⑤⑥⑥⑤
口⑦⑦口 |⑤---|
口口口口 |⑥---|
口口口口 |⑦---|
35
口口口口 |①---|
③口口③ |②-③-|
口①①口 |--④-|
口④②口

⑤⑥⑥⑤
口⑦⑦口 |⑤---|
口口口口 |⑥---|
口口口口 |⑦---|
36
口口口口 |①---|
口口口口 |----|
③①①口 |②-③-|
口②口口

口口口口
口④口口 |④---|
口口口⑥ |----|
口口⑤口 |⑤-⑥-|
37
口口口口 |①---|
口口①口 |----|
口口口口 |----|
口口口口

口口口口
口口口口 |----|
③口口③ |----|
②口口② |②-③-|
38
口②②口 |①---|
①③③① |----|
口口口口 |②-③-|
口口口口

口口口口
口口口⑥ |④---|
⑤④④口 |----|
口口口口 |⑤-⑥-|
39
①③③口 |①---|
口②②口 |②-③-|
口口口口 |--④-|
口④④口

口口口口
⑥口口口 |⑤---|
口⑤⑤⑦ |⑥---|
口口口口 |⑦---|
40
口口口口 |①---|
口口口口 |----|
口③③口 |②-③-|
①②②口

⑤口口口
口④④⑥ |④---|
口口口口 |----|
口口口口 |⑤-⑥-|
41
口③③口 |①---|
口②②口 |②-③-|
①口口口 |--④-|
口④④口

⑥口口口
口⑦口口 |⑤---|
口⑤⑤口 |⑥---|
口口口口 |⑦---|
42
口口①① |①---|
口口口口 |----|
口②口口 |②-③-|
口口③口

⑥④口⑥
口口口口 |④---|
口口口口 |⑤---|
口⑤口口 |⑥---|
43
口口口口 |①---|
口口口口 |----|
②①①口 |②-③-|
口③口口

⑥口④⑥
口口口口 |④---|
口口口口 |⑤---|
口口⑤口 |⑥---|
44
口口口口 |①---|
②③口④ |②-③-|
口①①口 |--④-|
口口口口

⑦口口⑦
口口⑤口 |⑤---|
口口口口 |⑥---|
口⑥⑥口 |⑦---|
45
口③③口 |①---|
口②②口 |②-③-|
①口口① |--④-|
口④④口

口口口口
口口口口 |⑤---|
⑦⑤⑤⑦ |----|
⑥口口⑥ |⑥-⑦-|
46
口②②口 |①---|
①③③① |----|
口口口口 |②-③-|
口口口口

口口口口
口口口⑥ |④---|
⑤④④口 |----|
口口口口 |⑤-⑥-|
47
①③③口 |①---|
口②②口 |②-③-|
口口口口 |--④-|
口④④口

⑥口口口
⑦口口口 |⑤---|
口⑤⑤口 |⑥---|
口口口口 |⑦---|
48
口口口口 |①---|
口口口口 |----|
①③③口 |②-③-|
口②②口

⑤口口口
口④④⑥ |④---|
口口口口 |----|
口口口口 |⑤-⑥-|
49
口③③口 |①---|
口②②口 |②-③-|
①口口口 |--④-|
口④④口

⑥口口口
口⑦口口 |⑤---|
口⑤⑤口 |⑥---|
口口口口 |⑦---|
50
口口①① |①---|
口口口口 |----|
口口口口 |----|
口口口口

④口口⑤
②口口③ |----|
口口口口 |②-③-|
口口口口 |④-⑤-|
51
口①口口 |①---|
口④口口 |--②-|
口口③口 |③-④-|
口②口口

口口⑤口
口口口口 |⑤---|
口⑥口口 |----|
口口⑦口 |⑥-⑦-|
52
口口口口 |①---|
口口口口 |----|
①口②① |②-③-|
口③口口

口口口口
④口口④ |④---|
⑤口口⑤ |----|
口口口口 |⑤---|
53
①①①① |①---|
口口口口 |----|
口口口口 |----|
口口口口

口口口口
口口口口 |②---|
口口口口 |----|
②②②② |----|
54
口①②口 |----|
口③④口 |①-②-|
口口口口 |③-④-|
口口口口

口口口口
⑧口口口 |⑤---|
⑥⑤口⑦ |--⑥-|
口口口口 |⑦-⑧-|
55
口口口口 |①---|
口口口① |----|
口口②口 |②-③-|
口③口口

⑤口口⑤
口口口口 |④---|
④口口口 |----|
口口口口 |⑤---|
56
口②②口 |①---|
口口口口 |②---|
口①①口 |③---|
口③③口

⑤口口⑥
④口口④ |④---|
⑥口口⑤ |⑤---|
口口口口 |⑥---|
57
口口口口 |①---|
口①①口 |--②-|
口①①口 |③---|
口②③口

口口口口
口口口④ |④---|
口口口⑤ |⑤---|
口口口⑥ |⑥---|
58
口①②口 |①-②-|
口口口口 |--③-|
口口口口 |④---|
口③④口

口口口口
⑤口口口 |⑤---|
⑥口口口 |⑥---|
⑦口口口 |⑦---|
59
口①②口 |①-②-|
口口口口 |--③-|
口口口口 |④---|
口③④口

⑨口口⑩
⑦口口⑧ |⑤-⑥-|
⑤口口⑥ |⑦-⑧-|
口口口口 |⑨-⑩-|
60
口①②口 |①-②-|
口③④口 |③-④-|
口⑤⑥口 |⑤-⑥-|
口口口口

⑧口口⑧
口口口口 |⑦---|
⑦口口⑦ |--⑧-|
口口口口 |----|
61
口口口口 |①-②-|
①口口② |--③-|
口口口口 |④---|
口③④口

⑦⑥⑤口
口口口口 |⑤---|
口口口口 |⑥---|
口口口口 |⑦---|
62
口口口口 |①-②-|
①口口② |--③-|
口口口口 |④---|
口③④口

口⑤⑥⑦
口口口口 |⑤---|
口口口口 |⑥---|
口口口口 |⑦---|
63
口口口口 |①---|
④口口⑤ |②-③-|
②①①③ |④-⑤-|
口口口口

⑥口口⑦
口⑧⑧口 |(192)⑥-⑦-|
口⑨⑨口 |(180)⑧---|
口口口口 |(168)⑨---|
64
口口口口 |(156)①---|
口口口口 |----|
口口口口 |----|
口①①口

口口口口
口口口口 |----|
口口口口 |----|
口口口口 |----|
65
口口口口 |----|
口口口口 |----|
口口口口 |----|
口口口口

口口口口
口口口口 |----|
口口口口 |----|
口口口口 |----|

accuracy: 100%
最終更新:2024年08月11日 08:05