アットウィキロゴ
廻る季節のゆく先に
中島由貴

EXTREME

Level: 8
BPM: 102
Notes: 662

1
口口口口 |(204)----|
口口口口 |----|
口口口口 |----|
口口口口

口口口口
口口口口 |----|
口口口口 |----|
口口口口 |----|
2
口口口口 |①-②-|
②④口口 |--③-|
①③口口 |④---|
口口口口

口口口⑥
口口⑤口 |⑤---|
口口口口 |⑥---|
口口⑦口 |⑦---|
3
口口口口 |①-②-|
口口④② |--③-|
口口③① |④---|
口口口口

⑥口口口
口⑤口口 |⑤---|
口口口口 |⑥---|
口⑦口口 |⑦---|
4
口口口口 |①-②-|
②④口口 |--③-|
①③口口 |④---|
口口口口

口口口口
口口口口 |⑤-⑥-|
⑩口口⑨ |⑦-⑧-|
⑧⑥⑤⑦ |⑨-⑩-|
5
④⑥⑤③ |①-②-|
②口口① |③-④-|
口口口口 |⑤-⑥-|
口口口口

口口口口
口口口口 |⑦---|
口⑦⑦口 |--⑧-|
⑧⑦⑦⑧ |----|
6
口口口口 |①-②-|
口口②④ |--③-|
口口③① |④---|
口口口口

口⑥口口
⑤口口口 |⑤---|
口口口口 |⑥---|
口⑦口口 |⑦---|
7
口口口口 |①-②-|
④②口口 |--③-|
①③口口 |④---|
口口口口

口口⑥口
口口口⑤ |⑤---|
口口口口 |⑥---|
口口⑦口 |⑦---|
8
口口口口 |①---|
④③②口 |②③④-|
口①①口 |--⑤⑥|
口⑤⑥口

⑧⑩⑪⑨
口口口口 |⑦---|
口口口口 |⑧-⑨-|
口口口⑦ |⑩-⑪-|
9
口口口口 |①---|
口②③口 |----|
口①①口 |--②③|
口口口口

口口口口
口口口④ |④---|
口⑤口口 |----|
口口口口 |⑤---|
10
①口口口 |①---|
口②③口 |--②-|
口口口口 |③-④-|
口④口口

口口口口
口口口口 |⑤---|
口口⑥口 |----|
口口⑤口 |⑥---|
11
口口口① |①---|
口②③口 |--②-|
口口口口 |③-④-|
口④口口

口口口口
口口口口 |⑤---|
口⑥口口 |----|
口口⑤口 |⑥---|
12
①口口口 |①---|
口④口口 |--②-|
②口口③ |③-④-|
口口口口

⑥口⑦口
口口⑤口 |⑤---|
口口口口 |⑥---|
口口口口 |⑦---|
13
口口口口 |①---|
口口口口 |----|
口口口口 |----|
口①口口

口②口口
口口③口 |----|
口口口口 |----|
口口口口 |②-③-|
14
口口口口 |①---|
口③口口 |----|
口①②口 |②-③-|
口口口口

⑤口④口
口口口⑥ |④---|
口口口口 |⑤---|
口口口口 |⑥---|
15
口口口口 |①---|
口口②口 |----|
①③口口 |②-③-|
口口口口

口口口口
⑤口口口 |④---|
口口口口 |----|
④口口口 |⑤---|
16
口口口口 |①---|
口④③口 |--②-|
②口口口 |③-④-|
口①①口

口口口口
口口口⑥ |⑤---|
口口口⑤ |----|
口口口口 |⑥---|
17
口口口口 |①---|
口③④口 |--②-|
口口口② |③-④-|
口①①口

口口口口
口口口口 |⑤---|
⑤⑥口口 |----|
口口⑦口 |⑥-⑦-|
18
口口口口 |①---|
①口口① |--②-|
②口④② |③-④-|
口③口口

⑤口⑥⑤
口⑦⑦口 |⑤---|
口⑥口口 |⑥---|
口口口口 |⑦---|
19
口口口口 |①---|
①口口口 |----|
口口口① |----|
口口口口

口口口口
②口②口 |----|
口③口口 |----|
口口口口 |②-③-|
20
口①②① |①---|
口③口② |----|
口口③口 |②-③-|
口口口口

口⑤口⑤
口口口口 |④---|
④⑥口⑥ |⑤---|
口④口口 |⑥---|
21
①③①口 |①---|
口②②口 |----|
口口口口 |②-③-|
口口口口

口口口口
口口口口 |④---|
口口⑤口 |----|
口④④口 |⑤---|
22
①口口① |①---|
口②③④ |②-③-|
口口口口 |④---|
口口口口

口口口口
口口口口 |⑤---|
口⑦口口 |⑥---|
⑥⑤口口 |⑦---|
23
③②口口 |①---|
①口口口 |②---|
口口口口 |③---|
口口口口

口口口口
口④口口 |④---|
⑤口口⑦ |⑤---|
口⑥⑥口 |⑥-⑦-|
24
口口③口 |①---|
④口②① |②-③-|
口②⑤口 |④-⑤-|
①口口口

⑦⑥口口
口⑧⑧口 |⑥---|
口口口⑦ |⑦---|
口口⑥口 |⑧---|
25
口口口① |①---|
口口口口 |②---|
①口口口 |③-④-|
③②③④

口⑦口口
⑥口⑦⑧ |⑤---|
口⑤⑤口 |⑥---|
口口口口 |⑦-⑧-|
26
①口①口 |①---|
口②口口 |②-③-|
④口②③ |④-⑤-|
口口⑤口

口口口⑦
口口口口 |⑥---|
口⑧⑧口 |⑦---|
⑦⑥口⑥ |⑧---|
27
④②①口 |①---|
①口⑤口 |②-③-|
口口口口 |④-⑤-|
口口②③

口口⑧口
口⑥口⑥ |⑥---|
⑦口⑦口 |⑦---|
口⑧口口 |⑧---|
28
③口口④ |①---|
口口口口 |②---|
口②口口 |③-④-|
①口①口

口⑤⑥口
⑨⑦⑧⑩ |⑤-⑥-|
口口口口 |⑦-⑧-|
口口口口 |⑨-⑩-|
29
②④⑤③ |①---|
口口口口 |②-③-|
③①①② |④-⑤-|
口⑤④口

口口口口
⑦⑥⑥⑦ |⑥---|
口口⑨口 |⑦---|
⑧口口⑧ |⑧-⑨-|
30
①口口④ |①---|
口口口口 |②-③-|
④②口① |④---|
口口③口

⑥⑤口口
口⑦口口 |⑤---|
口口口口 |⑥---|
口口口口 |⑦---|
31
口口口口 |①---|
口口口口 |②---|
①口口口 |③---|
③②口口

口⑥口口
⑤口⑦口 |④---|
口④口⑥ |⑤---|
口口口口 |⑥-⑦-|
32
①口口① |①---|
口②口口 |②-③-|
④口③口 |④-⑤-|
口口②⑤

口口口⑦
口口⑧口 |⑥---|
口⑧口⑥ |⑦---|
⑦⑥口口 |⑧---|
33
③②口口 |①---|
①口口④ |②---|
口口③口 |③-④-|
口口①口

口口⑤⑦
口⑤⑧口 |⑤---|
⑥口口口 |⑥---|
口⑦口口 |⑦-⑧-|
34
口口口口 |①---|
④口口⑤ |②-③-|
口②③① |④-⑤-|
①口②口

⑦⑥口⑥
口⑧⑧口 |⑥---|
口口口⑦ |⑦---|
口口口口 |⑧---|
35
口口口③ |①---|
口口口② |②-③-|
①口①口 |④-⑤-|
④②口⑤

口⑧⑧口
⑦口口口 |⑥---|
口⑥⑦⑥ |⑦---|
口口口口 |⑧---|
36
口口口口 |①---|
口口③② |----|
②③口口 |②-③-|
口①①口

口⑥⑤口
口④口口 |④---|
口口④口 |----|
口⑤⑥口 |⑤-⑥-|
37
①口口口 |①---|
口口口口 |----|
口口口口 |----|
口口口①

口口口口
②口口③ |----|
③口口② |----|
口口口口 |②-③-|
38
口③②① |①---|
口口口口 |----|
口口口口 |②-③-|
①②③口

④口口口
⑤⑥⑥口 |④---|
口口口⑤ |----|
口口口④ |⑤-⑥-|
39
④口①③ |①---|
口口口口 |②-③-|
④口②口 |--④-|
口①口口

口⑤口口
口口口⑦ |⑤---|
口⑤口口 |⑥---|
⑦⑥⑥口 |⑦---|
40
口③④口 |①---|
①口口口 |②---|
口②口口 |③-④-|
口④③①

口口口⑤
口⑧⑧⑦ |⑤---|
⑦口⑥口 |⑥---|
⑤口口口 |⑦-⑧-|
41
③①口④ |①---|
口口口口 |②-③-|
口②口④ |--④-|
口口①口

口口⑤口
口⑦⑥口 |⑤---|
口口⑤口 |⑥---|
口⑥⑦口 |⑦---|
42
口口口口 |①---|
①口④① |②---|
口②口③ |③-④-|
口口口口

⑥⑥口⑤
口口口⑦ |⑤---|
口口⑦口 |⑥---|
口⑦口口 |⑦---|
43
③口口口 |①---|
口④④口 |②---|
口②口③ |③-④-|
①口①口

口口口⑤
口口口口 |⑤---|
⑤口口口 |⑥---|
口⑦⑥口 |⑦---|
44
①④口口 |①---|
①②③口 |②-③-|
口③②① |--④-|
口口④①

⑥口⑤⑥
口口口口 |⑤---|
口口口口 |⑥---|
⑦⑤口⑦ |⑦---|
45
口口③口 |①---|
口②④① |②-③-|
①④②口 |--④-|
口③口口

口⑤口口
⑤⑦口⑥ |⑤---|
⑥口⑦⑤ |----|
口口⑤口 |⑥-⑦-|
46
口口①① |①---|
②口③口 |----|
口③口② |②-③-|
①①口口

④④口⑦
口口口⑥ |④---|
⑥口⑤口 |⑤---|
⑦口④④ |⑥-⑦-|
47
③口口口 |①---|
①口口口 |②-③-|
口口口① |--④-|
口②④口

口⑤⑤⑦
口口⑥⑦ |⑤---|
⑦⑥口口 |⑥---|
⑦口口口 |⑦---|
48
口口③口 |①---|
②①口口 |----|
口口①② |②-③-|
口③口口

④口口口
口⑤⑥口 |④---|
口⑥⑤口 |----|
口口口口 |⑤-⑥-|
49
口口口③ |①---|
②口口① |②-③-|
①口口② |--④-|
③④④口

口⑤⑤口
口⑥⑦口 |⑤---|
口⑦⑥口 |⑥---|
口口口口 |⑦---|
50
①口口① |①---|
口口口口 |②-③-|
口口④⑤ |④-⑤-|
口口②③

⑪口口口
口⑩⑥⑦ |⑥-⑦-|
⑨口口口 |⑧-⑨-|
口⑧口口 |⑩-⑪-|
51
口④口② |①---|
③口口口 |--②-|
口①①③ |③-④-|
②口④口

口口⑤口
口⑧⑧⑦ |⑤---|
⑦⑥口口 |⑥---|
口⑤口口 |⑦-⑧-|
52
①③口② |①---|
②口口口 |----|
口口③① |②-③-|
口口口口

⑤口④口
口口口口 |④---|
口④口⑤ |----|
口⑥⑥口 |⑤-⑥-|
53
口②③口 |①---|
①口口① |②-③-|
口④⑤口 |④-⑤-|
①口口①

⑥口口⑥
口⑥⑥口 |⑥---|
口口口口 |----|
口口口口 |----|
54
②②口口 |①---|
口口口口 |②-③-|
口口③④ |④-⑤-|
①①⑤②

口口⑨⑩
口口⑥⑧ |⑥---|
⑦⑦口口 |⑦-⑧-|
口口口口 |⑨-⑩-|
55
口口口口 |①---|
③②②③ |----|
口口①口 |②-③-|
口口口口

④口⑥口
口口口口 |④---|
口口⑤④ |⑤---|
口⑥口口 |⑥---|
56
口①口② |①---|
③口③② |②---|
②③口③ |③---|
②口①口

⑤口④⑥
口④口⑥ |④---|
⑥口④口 |⑤---|
⑥④口⑤ |⑥---|
57
口口④口 |①-②-|
①口①口 |--③-|
口①③① |④---|
口口②口

⑤⑥口口
口⑤口口 |⑤---|
口口口口 |⑥---|
口⑦口口 |⑦---|
58
口④口口 |①-②-|
②口口口 |--③-|
口③口口 |④---|
①口口口

口口⑥⑤
口口⑤口 |⑤---|
口口口口 |⑥---|
口口⑦口 |⑦---|
59
口口④口 |①-②-|
口口口② |--③-|
口口③口 |④---|
口口口①

口口口口
口口口口 |⑤-⑥-|
⑨口口⑩ |⑦-⑧-|
⑦⑤⑥⑧ |⑨-⑩-|
60
③⑤⑥④ |①-②-|
①口口② |③-④-|
口口口口 |⑤-⑥-|
口口口口

口口口口
口口口口 |⑦---|
口⑦⑦口 |--⑧-|
⑧⑦⑦⑧ |----|
61
②④口口 |①-②-|
④②口口 |--③-|
①③口口 |④---|
口口口口

口口口口
口口口口 |⑤---|
⑦口⑤口 |⑥---|
口⑥口口 |⑦---|
62
口口④② |①-②-|
口口②④ |--③-|
口口③① |④---|
口口口口

口口口口
口口口口 |⑤---|
口⑤口⑦ |⑥---|
口口⑥口 |⑦---|
63
①口口① |①---|
口②③④ |②③④-|
口口口口 |--⑤⑥|
口⑥⑤口

口口口⑨
⑧口口口 |(192)⑦---|
口口口口 |(180)⑧---|
⑦口口口 |(168)⑨---|
64
口口口口 |(156)①---|
口口口口 |----|
口①①口 |----|
口口口口

口口口口
口②③口 |----|
口口口口 |----|
口口口口 |--②③|
65
口口口口 |①---|
口口口① |----|
口口口口 |----|
口口口口

口口口口
口口口口 |----|
口口口口 |----|
口口口口 |----|

accuracy: 100%
最終更新:2024年08月11日 08:05