アットウィキロゴ
アカリがやってきたぞっ
GYARI(ココアシガレットP)

BASIC

Level: 3
BPM: 136
Notes: 278

1
口口口口 |----|
口口口口 |----|
口口口口 |----|
口口口口 |----|
2
口口口口 |----|
口口口口 |----|
口口口口 |----|
口口口口 |----|
3
口口口① |①---|
口口口口 |----|
口口口口 |----|
口口口口 |----|
4
口口口口 |----|
口口口口 |----|
口口口口 |----|
口口口口 |----|
5
口口口① |①---|
口口口口 |----|
口口口口 |----|
口口口口 |----|
6
口口口口 |----|
口口口口 |----|
口口口口 |----|
口口口口 |----|
7
口口口① |①---|
口口口② |②---|
口口口③ |③---|
口口口④ |④---|
8
口口①口 |①---|
口口②口 |②---|
口口③口 |③---|
口口④口 |④---|
9
口①口口 |①---|
口②口口 |②---|
口③口口 |③---|
口④口口 |④---|
10
①口口口 |①---|
②口口口 |②---|
③口口口 |③---|
④口口口 |④---|
11
口①①口 |①---|
口②②口 |②---|
口③③口 |③---|
口④④口 |④---|
12
①口口① |①---|
②口口② |②---|
③口口③ |③---|
④口口④ |④---|
13
③③③③ |①---|
②口口② |----|
口①①口 |②---|
口口口口 |--③-|
14
口口口口 |----|
口口口口 |----|
口口口口 |----|
口口口口 |----|
15
口口口口 |①---|
口口口口 |②---|
口口口口 |③---|
③④②① |④---|
16
口口口口 |①---|
口口口口 |②---|
③④②① |③---|
口口口口 |④---|
17
口口口口 |①---|
③④②① |②---|
口口口口 |③---|
口口口口 |④---|
18
口口口口 |----|
口口口口 |①---|
口①①口 |----|
口口口口 |----|
19
③④②① |①---|
口口口口 |②---|
口口口口 |③---|
口口口口 |④---|
20
口口口口 |①---|
③④②① |②---|
口口口口 |③---|
口口口口 |④---|
21
口口口口 |①---|
口口口口 |②---|
③④②① |③---|
口口口口 |④---|
22
口口口口 |----|
口口口口 |----|
口②②口 |①---|
口①①口 |②---|
23
口口口① |①---|
口口口② |②---|
口口口③ |③---|
口口口口 |----|
24
口口口口 |①---|
口口③口 |②---|
口口②口 |③---|
口口①口 |----|
25
口①口口 |①---|
口②口口 |②---|
口③口口 |③---|
口口口口 |----|
26
口口口口 |①---|
③口口口 |②---|
②口口口 |③---|
①口口口 |----|
27
①口口口 |①---|
②口口口 |②---|
③口口口 |③---|
口口口口 |----|
28
口口口口 |①---|
口③口口 |②---|
口②口口 |③---|
口①口口 |----|
29
口口①口 |①---|
口口②口 |②---|
口口③口 |③---|
口口口口 |----|
30
口口口口 |①---|
口口口③ |②---|
口口口② |③---|
口口口① |----|
31
口口口口 |①---|
③口口③ |②---|
口②②口 |③---|
口①①口 |----|
32
③口口③ |①---|
口②②口 |②---|
口①①口 |③---|
口口口口 |----|
33
口①①口 |①---|
口②②口 |②---|
③口口③ |③---|
口口口口 |----|
34
口口口口 |①---|
口口口口 |----|
口①①口 |----|
口①①口 |----|
35
口①①口 |①---|
口②②口 |②---|
③口口③ |③---|
口口口口 |----|
36
口口口口 |①---|
口①①口 |②---|
口②②口 |③---|
③口口③ |----|
37
口口口口 |①---|
③口口③ |②---|
口②②口 |③---|
口①①口 |----|
38
口口口口 |①---|
②①①② |----|
口①①口 |----|
口口口口 |②---|
39
口口口口 |①---|
口口口口 |②---|
口口口口 |③---|
③④②① |④---|
40
口口口口 |①---|
口口口口 |②---|
③④②① |③---|
口口口口 |④---|
41
口口口口 |①---|
③④②① |②---|
口口口口 |③---|
口口口口 |④---|
42
口口口口 |----|
口口口口 |①---|
口口口口 |----|
口①①口 |----|
43
③④②① |①---|
口口口口 |②---|
口口口口 |③---|
口口口口 |④---|
44
口口口口 |①---|
③④②① |②---|
口口口口 |③---|
口口口口 |④---|
45
口口口口 |①---|
口口口口 |②---|
③④②① |③---|
口口口口 |④---|
46
口口口口 |①---|
口口口口 |----|
口②②口 |②---|
口①①口 |----|
47
①①①① |①---|
口口口口 |----|
口口口口 |----|
②口口② |②---|
48
口口口口 |①---|
④④②② |②---|
③③①① |③---|
口口口口 |④---|
49
③③①① |①---|
④④②② |②---|
口口口口 |③---|
口口口口 |④---|
50
口口口口 |①---|
口口口口 |----|
口②②口 |②---|
口①①口 |----|
51
口口口口 |①---|
①口口① |②---|
②口口② |③---|
③口口③ |----|
52
口口口口 |①---|
④④②② |②---|
③③①① |③---|
口口口口 |④---|
53
③③①① |①---|
④④②② |②---|
口口口口 |③---|
口口口口 |④---|
54
口②口口 |①---|
口②②口 |----|
口①口口 |②---|
口①①口 |----|
55
口口口口 |①---|
口口口口 |②---|
口①①口 |----|
口②②口 |----|
56
口口口口 |①---|
②②④④ |②---|
①①③③ |③---|
口口口口 |④---|
57
①①③③ |①---|
②②④④ |②---|
口口口口 |③---|
口口口口 |④---|
58
口口口口 |①---|
口口口口 |----|
口②②口 |②---|
口①①口 |----|
59
口口口口 |①---|
①口口① |②---|
②口口② |③---|
③口口③ |----|
60
口口口口 |①---|
②②④④ |②---|
①①③③ |③---|
口口口口 |④---|
61
①①③③ |①---|
②②④④ |②---|
口口口口 |③---|
口口口口 |④---|
62
口口口口 |①---|
口口口口 |----|
口①口口 |----|
口①①口 |----|
63
口口口口 |①---|
口①口口 |----|
口①①口 |----|
口口口口 |----|
64
口口口口 |----|
口口口口 |----|
口口口口 |----|
口口口口 |----|

accuracy: 99.5%
最終更新:2023年10月11日 01:56