アットウィキロゴ
nアカリがやってきたぞっ
GYARI(ココアシガレットP)

ADVANCED

Level: 7
BPM: 136
Notes: 450

1
口口口口 |----|
口口口口 |----|
口口口口 |----|
口口口口 |----|
2
口口口口 |----|
口口口口 |----|
口口口口 |----|
口口口口 |----|
3
④口口口 |--①-|
③口口口 |--②-|
②口口口 |--③-|
①口口口 |--④-|
4
④口口口 |--①-|
③口口口 |--②-|
②口口口 |--③-|
①口口口 |--④-|
5
④口口口 |--①-|
③口口口 |--②-|
②口口口 |--③-|
①口口口 |--④-|
6
④口口口 |--①-|
③口口口 |--②-|
②口口口 |--③-|
①口口口 |--④-|
7
⑧口⑧口 |①-②-|
⑥口口⑦ |③-④-|
④口⑤③ |⑤-⑥⑦|
②口口① |--⑧-|
8
⑧口口⑧ |①-②-|
⑥口⑦口 |③-④-|
④口③⑤ |⑤-⑥⑦|
②口①口 |--⑧-|
9
⑧口⑧口 |①-②-|
⑥口口⑦ |③-④-|
④口⑤③ |⑤-⑥⑦|
②口口① |--⑧-|
10
口口口③ |①-②-|
口口口口 |③-④-|
④口口口
②口①①

⑦口口口
⑤口口口
口口口口 |--⑤-|
口口口⑥ |⑥-⑦-|
11
⑧口口⑧ |①-②-|
⑥口⑦口 |③-④-|
④口③⑤ |⑤-⑥⑦|
②口①口 |--⑧-|
12
⑧口⑧口 |①-②-|
⑥口口⑦ |③-④-|
④口⑤③ |⑤-⑥⑦|
②口口① |--⑧-|
13
⑤口口⑤ |①---|
口④④口 |②---|
③②②③ |③--④|
口①①口 |--⑤-|
14
①口口口 |----|
口①口口 |----|
口口①口 |----|
口口口口 |①---|
15
口⑦口⑧ |①②-③|
⑥口⑤口 |④---|
口③口④ |⑤⑥-⑦|
②口①口 |⑧---|
16
⑦⑨⑧口 |①②-③|
口⑥口⑤ |④---|
③口④口 |⑤⑥-⑦|
口②口① |⑧-⑨-|
17
口⑦口⑧ |①②-③|
⑥口⑤口 |④---|
口③口④ |⑤⑥-⑦|
②口①口 |⑧---|
18
口口口口 |----|
口①口口 |①---|
口口①口 |----|
口口口① |----|
19
口⑦口⑧ |①②-③|
⑥口⑤口 |④---|
口③口④ |⑤⑥-⑦|
②口①口 |⑧---|
20
⑦⑨⑧口 |①②-③|
口⑥口⑤ |④---|
③口④口 |⑤⑥-⑦|
口②口① |⑧-⑨-|
21
口⑦口⑧ |①②-③|
⑥口⑤口 |④---|
口③口④ |⑤⑥-⑦|
②口①口 |⑧---|
22
④口口③ |①---|
②口口② |②---|
口口口口 |③---|
③①①④ |④---|
23
口口口⑤ |①-②-|
④口③口 |③④-⑤|
口口②口 |----|
口口①口 |----|
24
⑤口口口 |①-②-|
口③口④ |③④-⑤|
口②口口 |----|
口①口口 |----|
25
口口口⑤ |①-②-|
④口③口 |③④-⑤|
口口②口 |----|
口口①口 |----|
26
口口口④ |①-②③|
③口②口 |-④-⑤|
口口①口 |----|
⑤口口⑤ |----|
27
口口口⑤ |①-②-|
④⑥③口 |③④-⑤|
口口②⑦ |--⑥-|
⑧口①口 |⑦-⑧-|
28
口口口⑤ |①-②-|
④口③口 |③④-⑤|
口口②口
口口①口

口口口口
口口口口
口口⑥口 |----|
口口⑦口 |⑥-⑦-|
29
⑤口口口 |①-②-|
口③口④ |③④-⑤|
口②口口 |----|
口①口口 |----|
30
口②口③ |①---|
口口口口 |②③-④|
口①①口 |----|
④口口④ |----|
31
②⑨⑨① |①-②-|
④⑧③⑦ |③④-⑤|
口⑤⑤口 |-⑥-⑦|
口⑥⑥口 |⑧-⑨-|
32
口⑥⑥口 |①-②-|
口⑤⑤口 |③④-⑤|
⑧④⑦③ |-⑥-⑦|
②⑨⑨① |⑧-⑨-|
33
②⑨⑨① |①-②-|
④⑧③⑦ |③④-⑤|
口⑤⑤口 |-⑥-⑦|
口⑥⑥口 |⑧-⑨-|
34
②口口① |①-②-|
④口③口 |③④-⑤|
口口口口 |----|
口⑤⑤口 |----|
35
口⑧⑧口 |①②--|
⑦口口⑥ |③-④⑤|
⑤②④① |--⑥-|
口③③口 |⑦-⑧-|
36
②口口① |①-②-|
⑥口口⑦ |③④-⑤|
口④口③ |----|
口⑤⑤口 |⑥-⑦-|
37
口①①口 |①---|
口④④口 |②③-④|
②口③口 |----|
⑤口口⑥ |⑤-⑥-|
38
口⑤⑤口 |①-②-|
①口口② |③④-⑤|
口③口④ |----|
口口口口 |----|
39
口⑦口⑧ |①②-③|
⑥口⑤口 |④---|
口③口④ |⑤⑥-⑦|
②口①口 |⑧---|
40
⑦⑨⑧口 |①②-③|
口⑥口⑤ |④---|
③口④口 |⑤⑥-⑦|
口②口① |⑧-⑨-|
41
口⑦口⑧ |①②-③|
⑥口⑤口 |④---|
口③口④ |⑤⑥-⑦|
②口①口 |⑧---|
42
口口口口 |----|
口口口口 |①---|
口口口口 |----|
①口口① |----|
43
口⑦口⑧ |①②-③|
⑥口⑤口 |④---|
口③口④ |⑤⑥-⑦|
②口①口 |⑧---|
44
⑦⑨⑧口 |①②-③|
口⑥口⑤ |④---|
③口④口 |⑤⑥-⑦|
口②口① |⑧-⑨-|
45
口⑦口⑧ |①②-③|
⑥口⑤口 |④---|
口③口④ |⑤⑥-⑦|
②口①口 |⑧---|
46
⑥口口⑤ |①②-③|
口④④口 |-④-⑤|
口③③口 |-⑥--|
口②口① |----|
47
口口口口 |①-②-|
口口口④ |③-④-|
③口口②
口①①口

⑦口口⑥
⑤口口口
⑨口⑧口 |⑤-⑥-|
口口口口 |⑦-⑧⑨|
48
口口③口 |----|
口②④① |----|
口⑤口口 |①②-③|
口⑤⑤口 |-④-⑤|
49
口口口口 |----|
口口口口 |----|
③口②口 |----|
①口口① |①-②③|
50
口口③口 |----|
口②④① |----|
口⑤口口 |①②-③|
口⑤⑤口 |-④-⑤|
51
①口口① |--①-|
③口④口 |②-③④|
②口口②
口口口口

口口口口
口口口口
口⑦口⑥ |----|
⑤口口⑤ |⑤-⑥⑦|
52
②口③口 |----|
①口口① |①-②③|
④口口④ |----|
口⑥口⑤ |④-⑤⑥|
53
④口口④ |--①-|
②口③口 |②③-④|
口①①口 |----|
口口口口 |----|
54
③口①口 |①---|
③③①① |②---|
④⑤口口 |③--④|
口⑤⑤② |--⑤-|
55
②口口② |--①-|
①口口① |②---|
⑤口④口 |----|
③口口③ |③-④⑤|
56
口口③口 |----|
口②④① |----|
口⑤口口 |①②-③|
口⑤⑤口 |-④-⑤|
57
口口口口 |----|
口口口口 |----|
③口②口 |----|
①口口① |①-②③|
58
口口③口 |----|
口②④① |----|
口⑤口口 |①②-③|
口⑤⑤口 |-④-⑤|
59
①口口① |--①-|
③口④口 |②-③④|
②口口②
口口口口

口口口口
口口口口
口⑦口⑥ |----|
⑤口口⑤ |⑤-⑥⑦|
60
②口③口 |----|
①口口① |①-②③|
口⑥口⑤ |----|
④口口④ |④-⑤⑥|
61
口口①口 |----|
口②①① |----|
③②②口 |①--②|
③③口口 |--③-|
62
①口口① |①---|
口口口口 |----|
口口口口 |----|
口口口口 |----|
63
口①口口 |①---|
口①口口 |----|
口①①口 |----|
口口口口 |----|
64
口口口口 |①---|
①口①口 |----|
口①口口 |----|
口①口口 |----|

accuracy: 99.5%
最終更新:2023年10月11日 01:56