アットウィキロゴ
アカリがやってきたぞっ
GYARI(ココアシガレットP)

EXTREME

Level: 9.4
BPM: 136
Notes: 694

1
口口口口 |----|
口口口口 |----|
口口口口 |----|
口口口口 |----|
2
口口口口 |----|
口口口口 |----|
口口口口 |----|
口口口口 |----|
3
⑤口口① |①-②-|
④口口口 |--③-|
③口口口 |--④-|
②口口口 |--⑤-|
4
④口口口 |--①-|
③口口口 |--②-|
②口口口 |--③-|
①口口口 |--④-|
5
⑤口口① |①-②-|
④口口口 |--③-|
③口口口 |--④-|
②口口口 |--⑤-|
6
④口口口 |--①-|
③口口口 |--②-|
②口口口 |--③-|
①口口口 |--④-|
7
⑨口口① |①-②-|
⑥①⑨③ |③-④-|
④⑦口⑤ |⑤-⑥⑦|
②③⑤⑧ |⑧-⑨-|
8
⑨⑤③① |①-②-|
⑥口⑦③ |③-④-|
④⑨①⑤ |⑤-⑥⑦|
②口口⑧ |⑧-⑨-|
9
⑨口口① |①-②-|
⑥①⑨③ |③-④-|
④⑦①⑤ |⑤-⑥⑦|
②③⑤⑧ |⑧-⑨-|
10
⑧③②① |①-②-|
⑥口口③ |③-④-|
④⑤①⑤ |⑤-⑥-|
②⑦⑦⑦ |⑦-⑧-|
11
口口②① |①-②-|
③①④③ |③-④-|
①③口口
口口口口

⑤⑤口口
口口口口
⑨口⑥⑤ |⑤-⑥⑦|
⑦⑦⑨⑧ |⑧-⑨-|
12
口口②① |①-②-|
③①④③ |③-④-|
口③口口
口口口口

⑤⑤口口
口口口口
⑨⑨⑥⑤ |⑤-⑥⑦|
⑦⑦⑨⑧ |⑧-⑨-|
13
②②①① |①---|
②口口① |②---|
口口口口
口口口口

⑤口口⑤
口口⑤④
③⑤口口 |③--④|
口③④口 |--⑤-|
14
口③口口 |----|
口口③口 |①---|
②②口③ |--②-|
①口口① |③---|
15
⑧口①② |①②-③|
⑧⑦口② |④---|
④口⑤⑥ |⑤⑥-⑦|
④③口⑥ |⑧---|
16
⑧口①② |①②-③|
⑧⑦口② |④---|
④口⑤⑥ |⑤⑥-⑦|
④③⑨⑥ |⑧-⑨-|
17
⑧口①② |①②-③|
⑧⑦口② |④---|
④口⑤⑥ |⑤⑥-⑦|
④③口⑥ |⑧---|
18
口②口口 |--①-|
④口②口 |②---|
①①口② |--③-|
口口③口 |④---|
19
⑧口①② |①②-③|
⑧⑦口② |④---|
④口⑤⑥ |⑤⑥-⑦|
④③口⑥ |⑧---|
20
⑧口①② |①②-③|
⑧⑦口② |④---|
④口⑤⑥ |⑤⑥-⑦|
④③⑨⑥ |⑧-⑨-|
21
⑧口①② |①②-③|
⑧⑦口② |④---|
④口⑤⑥ |⑤⑥-⑦|
④③口⑥ |⑧---|
22
口②①口 |①---|
口口口口 |②---|
口口口口
①口口②

口口④③
口口④③
口口口口 |③---|
④③口口 |④---|
23
口①口口 |①---|
①②口口 |----|
①口口口 |②---|
口③④⑤ |③④⑤-|
24
⑤⑥①⑤ |①②③-|
⑦④④② |④-⑤-|
⑩口③⑩ |⑥⑦⑧⑨|
⑨⑨⑧⑧ |--⑩-|
25
①口②② |①---|
③口口③ |②---|
③②①③ |----|
口口口口 |③---|
26
口口口⑥ |----|
⑥③②口 |①②③④|
口④①口 |--⑤-|
⑤⑤⑤⑤ |--⑥-|
27
口③③口 |①-②-|
口①口③ |③---|
口②③口 |----|
口口③口 |----|
28
⑩口口⑤ |①②③④|
口口口口 |⑤---|
⑧⑨④③ |⑥⑦⑧⑨|
⑥⑦②① |⑩---|
29
口②口口 |①---|
②口④口 |②---|
口口口④ |③-④-|
口③①口 |----|
30
③口口② |①--②|
口①口口 |③---|
①口口口
口口口口

口口口口
口口口⑤
⑥口口⑤ |--④-|
⑥④④口 |⑤-⑥-|
31
⑤②口④ |①-②③|
③①①口 |④⑤-⑥|
口⑥口口
口⑥口口

口口口⑩
⑩口口⑦
口口口⑦ |-⑦-⑧|
口口⑧⑨ |⑨-⑩-|
32
⑧口④⑨ |①-②③|
口①①⑤ |④⑤-⑥|
⑥⑦⑥⑦ |-⑦-⑧|
③②⑩口 |⑨-⑩-|
33
④③口口 |①-②-|
口①①口 |③④-⑤|
口⑤口口
②⑤口口

口口口口
口⑨⑨⑥
口口口⑥ |-⑥-⑦|
口口⑦⑧ |⑧-⑨-|
34
①口口② |①-②-|
③⑥口③ |③④-⑤|
④②①④ |--⑥-|
⑦⑤⑤口 |⑦---|
35
口⑥⑥① |①②-③|
④口口② |④-⑤⑥|
口④口口
口⑤⑤③

口口口口
口口⑨⑩
口口⑧⑪ |--⑦-|
⑦口口口 |⑧⑨⑩⑪|
36
①口口口 |①---|
①④④口 |②③-④|
口④④口
④②③④

⑥口口⑤
口口口口
口口口口 |----|
口口口口 |⑤--⑥|
37
口①⑧⑨ |①②③④|
②③⑩⑪ |⑤⑥⑦⑧|
④⑤⑫⑬ |⑨⑩⑪⑫|
⑥⑦⑭⑮ |⑬⑭⑮-|
38
⑦口⑧⑥ |①②③④|
口⑤⑧⑧ |⑤-⑥⑦|
①④⑧⑧ |--⑧-|
②③口口 |----|
39
②①口⑧ |①②-③|
②口⑦⑧ |④---|
⑥⑤口④ |⑤⑥-⑦|
⑥口③④ |⑧---|
40
②①口⑧ |①②-③|
②口⑦⑧ |④---|
⑥⑤口④ |⑤⑥-⑦|
⑥⑨③④ |⑧-⑨-|
41
②①口⑧ |①②-③|
②口⑦⑧ |④---|
⑥⑤口④ |⑤⑥-⑦|
⑥口③④ |⑧---|
42
口口口口 |----|
口口口口 |①---|
口口口口 |----|
①口口① |----|
43
②①口⑧ |①②-③|
②口⑦⑧ |④---|
⑥⑤口④ |⑤⑥-⑦|
⑥口③④ |⑧---|
44
②①口⑧ |①②-③|
②口⑦⑧ |④---|
⑥⑤口④ |⑤⑥-⑦|
⑥⑨③④ |⑧-⑨-|
45
②①口⑧ |①②-③|
②口⑦⑧ |④---|
⑥⑤口④ |⑤⑥-⑦|
⑥口③④ |⑧---|
46
口口口口 |①②-③|
口③口口 |-④-⑤|
口④口口
口①②⑤

口口⑥⑦
口口口口
口⑪⑩口 |-⑥⑦-|
口⑧⑨口 |⑧⑨⑩⑪|
47
①口口口 |①---|
口口口① |----|
口口口口
口口口口

②口口口
②口③③
②②③③ |--②-|
口口口③ |③---|
48
口②①⑤ |①②③④|
口口口口 |⑤---|
口口口口
口④③口

口⑨⑨口
⑨⑧⑧⑨
⑦⑧⑧⑥ |⑥-⑦-|
口口口口 |⑧⑨--|
49
⑥⑫⑪⑤ |①②③④|
口⑧⑦口 |⑤⑥⑦⑧|
⑩口口⑨ |⑨⑩⑪⑫|
③④②① |----|
50
口口口口 |①②③④|
口④①口 |⑤---|
口③②口
口⑤⑤⑤

⑪⑪⑩⑩
口口⑧⑦
口口⑨⑥ |⑥⑦⑧⑨|
口口口口 |⑩⑪--|
51
口口口口 |①②③④|
口⑥⑤口 |⑤⑥⑦⑧|
④⑧⑦③
②口口①

⑩口口⑨
口口口口
口口口口 |⑨⑩⑪⑫|
⑫口口⑪ |----|
52
③③口口 |①-②-|
口②③① |③---|
口③口口
口③口口

口口口⑥
口口口⑥
口口口口 |④-⑤-|
④口⑤⑥ |⑥---|
53
口⑨⑩口 |①②③④|
口⑪⑫口 |⑤⑥⑦⑧|
①②⑥⑤ |⑨⑩⑪⑫|
③④⑧⑦ |----|
54
①③③口 |①-②-|
口口口③ |③---|
口口③口
②口③口

⑥口口④
⑥口口口
口口口口 |④-⑤-|
⑥口口⑤ |⑥---|
55
口④③② |①-②-|
口①①口 |③-④-|
①①①①
口口口口

⑤口口口
口⑦⑥口
口口口口 |⑤---|
⑨口口⑧ |⑥⑦⑧⑨|
56
口②①⑤ |①②③④|
口口口口 |⑤---|
口口口口
口④③口

口⑨⑨口
⑨⑧⑧⑨
⑦⑧⑧⑥ |⑥-⑦-|
口口口口 |⑧⑨--|
57
⑥⑫⑪⑤ |①②③④|
口⑧⑦口 |⑤⑥⑦⑧|
⑩口口⑨ |⑨⑩⑪⑫|
③④②① |----|
58
口口口口 |①②③④|
口④①口 |⑤---|
口③②口
口⑤⑤⑤

⑪⑪⑩⑩
口口⑧⑦
口口⑨⑥ |⑥⑦⑧⑨|
口口口口 |⑩⑪--|
59
口口口口 |①②③④|
口⑥⑤口 |⑤⑥⑦⑧|
④⑧⑦③
②口口①

⑩口口⑨
口口口口
口口口口 |⑨⑩⑪⑫|
⑫口口⑪ |----|
60
口口⑤⑤ |①②③④|
②口口① |⑤---|
口口口口
口④③口

⑧⑧口口
⑧口⑥口
口口⑦口 |⑥-⑦-|
口口口口 |⑧---|
61
口口②口 |①-②-|
口②口② |----|
口口口口
①口①口

⑤⑤口口
口口口口
口口口口 |③--④|
口③④④ |--⑤-|
62
口口口③ |①---|
①口②① |②-③-|
①②②①
②②口口

④⑤口口
口口口口
口口口⑥ |④⑤-⑥|
口口口口 |----|
63
口口①口 |①---|
口口①口 |----|
口口口口 |----|
口口①口 |----|
64
口口口口 |①---|
①口①口 |----|
口①口口 |----|
口①口口 |----|

accuracy: 99.5%
最終更新:2023年10月11日 01:57