アットウィキロゴ
関門突破撃
新井大樹

EXTREME

Level: 10.2
BPM: 160
Notes(hold): 837(38)

1
口口口口 |----|
口口口口 |----|
口口口口 |----|
口口口口 |----|
2
②口④口 |①-②-|
①③④⑤ |③---|
③口①口 |④---|
口口口① |⑤---|
3
②口④口 |①-②-|
①③④⑤ |③---|
③口口口 |④---|
口口口口 |⑤---|
4
②口④口 |①-②-|
①③④⑤ |③---|
③口口口 |④---|
口口口口 |⑤---|
5
②口④口 |①-②-|
①③④⑤ |③---|
③口口口 |④---|
口口口口 |⑤---|
6
②口口口 |①-②-|
①③口口 |③---|
③口①口
口口口①

口口④口
口口④⑥
口口口⑤ |④--⑤|
口口口⑦ |⑥-⑦-|
7
②口④口 |①-②-|
①③④⑥ |③---|
③口口⑤ |④--⑤|
口口口⑦ |⑥-⑦-|
8
②口④口 |①-②-|
①③④⑥ |③---|
③口口⑤ |④--⑤|
口口口⑦ |⑥-⑦-|
9
口⑤④口 |①②--|
③口口口 |③-④⑤|
口①②口
口口口口

口口口口
口口口口
⑥⑧⑨⑥ |--⑥-|
⑦口口⑦ |⑦-⑧⑨|
10
③④口口 |①---|
①口口② |②---|
口口口口 |③-④-|
口①②⑤ |--⑤-|
11
③④口口 |①---|
①口口② |②---|
口口口口 |③-④-|
口①②⑤ |--⑤-|
12
口口口口 |①---|
①②③④ |②---|
口口①口 |③---|
口口口口 |④---|
13
口口口② |①-②-|
口口③口 |③-④-|
口④口口
口①口①

⑤口口口
口⑥口口
口口⑦口 |⑤-⑥-|
口口口⑧ |⑦-⑧-|
14
口①①④ |①---|
口口口③ |②---|
②口口口 |③-④-|
⑤②口口 |--⑤-|
15
口④口⑤ |①-②-|
口口③口 |③-④-|
口口①⑤ |----|
口②口口 |⑤---|
16
口口口口 |①---|
④③②① |②---|
①口口口 |③---|
口口①口 |④---|
17
②③④① |①-②③|
口⑤⑥口 |④-⑤⑥|
口口口口
口口口口

口口口⑪
口口口⑦
口⑧口⑨ |⑦⑧-⑨|
口口口⑩ |⑩-⑪-|
18
∨口口口 |①---|
①口口口
口口口口
口①口口

口口口∨
②口口② |②---|
口口口口
口口②口

③④口口
口┃口③
口∧口口 |③-④-|
口口口口

口⑤口口
口口口口
口口口口
口口口⑤ |--⑤-|
19
∨口口口 |①---|
①口口口
口口口口
口①口口

口口口∨
②口口② |②---|
口口口口
口口②口

③④口口
口┃口③
口∧口口 |③-④-|
口口口口

口⑤口口
口口口口
口口口口
口口口⑤ |--⑤-|
20
口口口口 |①---|
①②③④ |②---|
>━①口 |③---|
口口口口 |④---|
21
口②口口 |①-②-|
③口口口 |③-④-|
口④①口
口①>①

⑤口口口
口⑥口口
⑦口口口 |⑤-⑥-|
口⑧口⑧ |⑦-⑧-|
22
口①①口 |①---|
口口∧口
口口口口
口口口口

口口②口
口口口口 |②---|
>②口口
②口口口

⑤口口④
口口口③
口③口口 |③-④-|
口口口口 |--⑤-|
23
⑤⑤口④ |①-②-|
口口③口 |③-④-|
⑤口①口 |----|
口②口口 |⑤---|
24
口口口口 |①---|
口口②① |②---|
口口∨∨
口口①①

口口口口
④③口口
口口口口 |③---|
口口④④ |④---|
25
⑥②①⑤ |①②③④|
口⑩⑨⑬ |⑤⑥⑦⑧|
⑧④③⑦ |⑨⑩⑪⑫|
口⑫⑪⑬ |⑬---|
26
④③②① |①-②-|
口口口口 |③-④-|
口①口口
①口口口

口口口口
⑤口口口
⑥口口口 |⑤-⑥-|
⑦⑧口口 |⑦-⑧-|
27
口③④⑤ |①-②-|
口②口⑥ |③-④-|
口①口⑦ |⑤-⑥-|
口口口⑧ |⑦-⑧-|
28
①②③④ |①-②-|
口口口⑤ |③-④-|
口口口⑥ |⑤-⑥-|
口口⑧⑦ |⑦-⑧-|
29
⑤④③口 |①-②-|
⑥口②口 |③-④-|
⑦口①口 |⑤-⑥-|
⑧口口口 |⑦-⑧-|
30
口口④⑤ |①-②-|
口口⑥③ |③-④-|
口口②⑦ |⑤-⑥-|
口口⑧① |⑦-⑧-|
31
①口口⑤ |①-②-|
口②⑥口 |③-④-|
口⑦③口 |⑤-⑥-|
⑧口口④ |⑦-⑧-|
32
④⑤口口 |①-②-|
⑥③口口 |③-④-|
②⑦口口 |⑤-⑥-|
⑧①口口 |⑦-⑧-|
33
⑤⑨①⑨ |①-②-|
⑥口⑨② |③-④-|
⑦口③口 |⑤⑥⑦⑧--|
⑧口口④ |⑨---|
34
②口②口 |①---|
口④口① |②---|
口①口口 |③-④-|
③⑤⑤口 |--⑤-|
35
⑤②口② |①---|
①口④口 |②---|
口口①口 |③-④-|
口口口③ |--⑤-|
36
口口口口 |①-②-|
口⑧⑦⑥ |③-④-|
②③④⑤ |⑤-⑥-|
口①①口 |⑦-⑧-|
37
口口口② |①---|
①口口口 |----|
口口口口 |②---|
口口口② |----|
38
口口口③ |①---|
③口口② |--②-|
②口口① |----|
①口口口 |③---|
39
⑤口口口 |①②③-|
口口口口 |④-⑤-|
口①②③
④口口口

口口⑥口
⑧⑦口⑥
⑦⑧⑨口 |⑥-⑦-|
口⑨口口 |⑧-⑨-|
40
⑤②口① |①--②|
⑥口口口 |--③-|
口口口① |-④--|
③口④口 |⑤-⑥-|
41
口⑤⑥口 |①-②③|
口⑦口口 |④-⑤⑥|
①②③① |⑦-|
口④口口

口口口口
⑩口口⑩
⑨口口⑨ |⑧-|
⑧口口⑧ |⑨-⑩-|
42
②口②① |①---|
口④━< |②---|
口①口口 |③-④-|
③口口口

口口口口
口⑤口口
口口口口
口⑤⑤口 |--⑤-|
43
①②口② |①---|
>━④口 |②---|
口口①口 |③-④-|
口口口③

⑤口口口
口口⑤口
口口口口
口口口口 |--⑤-|
44
口口口口 |①-|
口口口口
口口口口
口①━<

口口口口
口口口口
口口口口
>━①口

口口口口 |②-|
口⑧⑦⑥ |③-④-|
②③④⑤ |⑤-⑥-|
口口口口 |⑦-⑧-|
45
∨口口口 |①---|
①口口口
口口口口
口①①口

>━━③
②口口口 |②---|
口口口口 |③---|
口口口③

口口口④
口口口口
口口口口
口口口口 |④---|
46
口口口口 |①---|
口口口口
口>━①
①口口口

口口口口
口>━③ |②-③-|
③口口②
口口口口

口>━⑤
⑤口口④
口口口口 |--④-|
口口口口 |⑤---|
47
⑤口口① |①②③-|
口口口口 |④-⑤-|
口①②③
④口口口

口口⑥口
⑧⑦口⑥
⑦⑧⑨口 |⑥-⑦-|
口⑨口口 |⑧-⑨-|
48
口②口① |①--②|
口口口∧ |--③-|
口口口① |-④--|
③口④口

⑤口口⑤
⑥口口口
口口口口
口口口口 |⑤-⑥-|
49
口口①口 |①---|
口∨┃① |----|
①┃∧口 |----|
口①口口

口口②口
口②口口
口口②口
口②口口 |②---|
50
③②口口 |①---|
∧口口② |②---|
③①口口 |③---|
∧口口①

④口口口
口口口口
④口口口
口口口口 |④---|
51
∨②口口 |①---|
③口口② |②---|
∨①口口 |③---|
③口口①

口口口口
④口口口
口口口口
④口口口 |④---|
52
③口口② |①---|
∧②口口 |②---|
③口口① |③---|
∧①口口

④口口口
口口口口
④口口口
口口口口 |④---|
53
∨口口② |①---|
③②口口 |②---|
∨口口① |③---|
③①口口

口口口口
④口口口
口口口口
④口口口 |④---|
54
③②口⑤ |①-②-|
⑥⑤口② |③---|
③①口④ |④-⑤-|
⑥④口① |⑥---|
55
③②口⑤ |①-②-|
⑥⑤口② |③---|
③①口④ |④-⑤-|
⑥④口① |⑥---|
56
③②口⑤ |①-②-|
⑥⑤口② |③-④-|
③①口④ |⑤-⑥-|
⑥④口①

口⑧口口
口口口⑧
口⑦口口
口口口⑦ |⑦-⑧-|
57
①口口③ |①-②-|
④③口口 |③-④-|
①⑧⑦② |⑤⑥⑦⑧|
④②⑥⑤

⑨━━<
口口口口
⑨━━<
口口口口 |⑨-|

⑩口口口
口口口口
⑩口口口
口口口口 |⑩-|
58
⑭④⑬① |①②③④|
⑩②⑦③ |⑤⑥⑦⑧|
⑯⑫⑮⑪ |⑨⑩⑪⑫|
⑧⑥⑨⑤ |⑬⑭⑮⑯|
59
口④口① |①②③④|
口②⑦③ |⑤⑥⑦⑧|
口口口⑨ |⑨---|
⑧⑥⑨⑤

⑩━<口
口口口口
⑩━<口
口口口口 |⑩-|

⑪口口口
口口口口
⑪口口口
口口口口 |⑪-|
60
⑭④⑬① |①②③④|
⑩②⑦③ |⑤⑥⑦⑧|
⑯⑫⑮⑪ |⑨⑩⑪⑫|
⑧⑥⑨⑤ |⑬⑭⑮⑯|
61
口④口① |①②③④|
口②⑦③ |⑤⑥⑦⑧|
口口口口
⑧⑥口⑤

口口∨∨
口口┃┃
口口┃⑨ |⑨---|
口口⑨口

口口口口
⑩口口口
口⑩口⑩
口口⑩口 |⑩---|
62
⑪⑤⑧② |①-②③|
⑫⑥⑨③ |④-⑤⑥|
口口口口 |⑦-⑧⑨|
⑩④⑦① |⑩-⑪⑫|
63
口口口① |①-②③|
口口口④ |④⑤⑥⑦|
②⑥⑤口
口③⑦口

⑪⑫⑬⑭
口⑩⑨口
口口口⑧ |⑧⑨⑩⑪|
口口口口 |⑫⑬⑭-|
64
⑩⑪⑫口 |①②③④|
⑦⑧⑬⑨ |⑤⑥⑦⑧|
④⑤⑭⑥ |⑨-⑩⑪|
①②⑮③ |⑫⑬⑭⑮|
65
⑦⑨⑯⑧ |⑫③④|
⑤⑩⑮⑥ |⑤⑥⑦⑧|
③⑪⑭④ |⑨⑩⑪⑫--|
①⑫⑬② |⑬⑭⑮⑯--|
66
②⑧⑪③ |①-②-|
口④⑪⑦ |③④⑤⑥|
⑩口⑨⑤ |⑦⑧⑨⑩|
①⑥⑫⑫ |⑪-⑫-|
67
②④⑪⑤ |①-②-|
⑧口⑪⑦ |③④⑤⑥|
⑩⑥⑨③ |⑦⑧⑨⑩|
①口⑫⑫ |⑪-⑫-|
68
②⑧⑪③ |①-②-|
口④⑪⑦ |③④⑤⑥|
⑩口⑨⑤ |⑦⑧⑨⑩|
①⑥⑫⑫ |⑪-⑫-|
69
②④口⑤ |①-②-|
口口口口 |③④⑤⑥|
口⑥口③
①口口口

口口⑪口
⑧口⑪⑦
⑩口⑨口 |⑦⑧⑨⑩|
⑫⑫口口 |⑪-⑫-|
70
③⑪口② |①-②-|
⑦⑪⑩⑥ |③④⑤⑥|
⑨⑤⑧④ |⑦⑧⑨⑩|
⑫⑫口① |⑪-⑫-|
71
⑤⑪④② |①-②-|
⑨⑪⑧口 |③④⑤⑥|
⑦③⑩口 |⑦⑧⑨⑩|
⑫⑫⑥① |⑪-⑫-|
72
③⑪口② |①-②-|
⑦⑪⑧口 |③④⑤⑥|
⑨⑤⑩⑥ |⑦⑧⑨⑩|
⑫⑫④① |⑪-⑫-|
73
①口④① |①-②③|
⑤⑥⑦⑧ |-④--|
口口口口 |---⑤-⑥-⑦-⑧--|
口口③② |----|
74
⑤口④② |①-②-|
口口口口 |③④⑤⑥|
①口①口
③①⑥①

口口口口 |①-②-|
⑦口⑨⑪ |③④⑤⑥|
⑭⑧⑫⑩ |⑦⑧⑨⑩|
口⑬口口 |⑪⑫⑬⑭|
75
⑤口④② |①-②-|
口口口口 |③④⑤⑥|
口口口口
③口⑥①

口⑩口⑭
⑦⑪⑨⑬
口⑧⑫口 |⑦⑧⑨⑩|
口口口口 |⑪⑫⑬⑭|
76
②⑫⑪口 |①-②-|
⑦⑬⑭⑩ |③④⑤⑥|
⑥⑧⑨③ |⑦⑧⑨⑩|
①⑤④口 |⑪⑫⑬⑭|
77
②口口口 |①-②-|
口口口口 |③④⑤⑥|
口⑥口口
①⑤④③

口口口口
⑫⑪⑩⑨
⑬口⑦⑧ |⑦⑧⑨⑩|
⑭口口口 |⑪⑫⑬⑭|
78
⑭⑬⑫② |①-②-|
⑩⑪⑦⑥ |③④⑤⑥|
⑨⑧口⑤ |⑦⑧⑨⑩|
口③④① |⑪⑫⑬⑭|
79
口⑫⑬② |①-②-|
⑪⑨⑭⑦ |③④⑤⑥|
⑩④⑧⑥ |⑦⑧⑨⑩|
③口⑤① |⑪⑫⑬⑭|
80
②⑪⑫③ |①-②-|
口⑩⑬④ |③④⑤⑥|
口⑨⑭⑤ |⑦⑧⑨⑩|
①⑧⑦⑥ |⑪⑫⑬⑭|
81
①⑨⑯② |⑫③④|
③⑩⑮④ |⑤⑥⑦⑧|
⑤⑪⑭⑥ |⑨⑩⑪⑫--|
⑦⑫⑬⑧ |⑬⑭⑮⑯--|
82
口口口口 |----|
口口口口 |----|
口口口口 |----|
口口口口 |----|
最終更新:2019年11月29日 17:50