アットウィキロゴ
全力ハッピーライフ
森羅万象

EXTREME

Level: 9.3
BPM: 190
Notes(hold): 853(47)

1
④口④口 |----|
口②口② |①---|
口③口③ |②-③-|
①□①□ |--④-|
2
口⑤口⑤ |--①-|
③口③口 |②---|
④口④口 |③-④-|
①②口② |--⑤-|
3
⑤口⑤口 |--①-|
口③口③ |②---|
口④口④ |③-④-|
②口②① |--⑤-|
4
口②口② |--①-|
口②②② |----|
口②口② |②---|
①口③口 |③---|
5
口④口④ |----|
②口②口 |①---|
③口③口 |②-③-|
口①口① |--④-|
6
口口⑤⑤ |--①-|
口③口③ |②---|
口④口④ |③-④-|
②口②① |--⑤-|
7
②口③③ |--①-|
②口口③ |②---|
②口③口 |----|
②①③③ |③---|
8
口口口口 |----|
口口③口 |①---|
口②③口 |②---|
①②③口 |③---|
9
②②口① |①---|
③③④① |②---|
口口口① |③---|
口口口① |--④-|
10
口口□□ |①---|
口口□③ |②---|
V④⑤⑥ |③-④⑤|
②⑦口① |⑥-⑦-|

口口口口
口口口口
口口口口
③口口口
11
⑥④①② |①-②-|
④⑥口口 |③-④-|
口口口口 |⑤-⑥-|
口⑦⑤③ |⑦-⑧-|

口口⑧口
口口□⑧
口口口口
□口口口
12
口口口② |①-②-|
④口②口 |③---|
⑦⑥⑤V |④-⑤⑥|
①口⑧③ |⑦-⑧-|

口口口口
□口口口
口口口口
□口口④
13
②①④⑥ |①-②-|
口口⑥④ |③-④-|
口口口口 |⑤-⑥-|
③⑤⑦口 |⑦-⑧-|

口⑧口口
⑧口口口
口口口口
□口口口
14
②口口口 |①-②-|
口②口④ |③---|
V⑤⑥⑦ |④-⑤⑥|
③⑧口① |⑦-⑧-|

口口口口
□口口口
口口口口
④口口□
15
⑥④①② |①-②-|
④⑥口口 |③-④-|
口口口口 |⑤-⑥-|
口⑦⑤③ |⑦-⑧-|

口口⑧口
口口□⑧
口口口口
□口口口
16
口③⑤② |①-②-|
③口②⑤ |③---|
口③⑤④ |④---|
①口④④ |⑤---|
17
④③口③ |①---|
④口②口 |②---|
①②>④ |③---|
①①>④ |④---|
18
口口口口 |①---|
口④⑤⑥ |②---|
V⑦口① |③-④⑤|
②口口① |⑥-⑦-|

口口口口
□口口口
口口口口
③口口□
19
口②>① |--①-|
③④口口 |--②-|
⑤⑥口口 |③-④-|
口口口口 |⑤-⑥-|

口口口②
□口口口
口口口口
□口口□
20
口口口口 |①-②-|
⑦⑥⑤口 |③---|
口口⑧V |④-⑤⑥|
①②口③ |⑦-⑧-|

口口口口
□口口口
口口口口
□口口④
21
①<②口 |--①-|
口口④③ |--②-|
口口⑥⑤ |③-④-|
口口口口 |⑤-⑥-|

②口口口
□口口口
口口口口
□口口□
22
③⑥④④ |①-②-|
③口口口 |③---|
口口口口 |④-⑤-|
⑤⑤②① |--⑥-|

口□口口
□口口口
口口口口
□口口⑥
23
口口口口 |--①-|
口>口① |----|
口>口① |----|
口口口口 |----|
24
□口②④ |----|
③口口① |①---|
②口口① |②---|
①口口口 |③-④-|
25
①口口□ |①---|
⑤口口口 |②---|
③口④② |③-④-|
②口口口 |⑤---|
26
①口口口 |①---|
④口口口 |②---|
③口口口 |③---|
②口③⑤ |④-⑤-|
27
①口口口 |①---|
⑤口③② |②---|
③④口口 |③-④-|
②口口口 |⑤---|
28
①口口① |①---|
④口⑤口 |②---|
③口V口 |③---|
②口②口 |④-⑤-|

口口口口
口口口口
口口口口
口口④口
29
①口口② |①---|
④口⑤∧ |②---|
③口口① |③---|
②口口口 |④-⑤-|

口口口④
口口口口
口口口口
口口□口
30
①口口口 |①---|
④口口口 |②---|
③①口口 |③---|
②>口② |④---|

口口口口
口口口口
口口口口
口口□□
31
①②口② |①---|
口②②口 |②---|
口②②口 |----|
口口口① |----|
32
口口口口 |----|
③④口口 |①---|
②口④② |②---|
①口②口 |③-④-|
33
①口②② |①---|
④口口口 |②---|
③口口⑤ |③---|
②口口④ |④-⑤-|
34
①口③④ |①---|
⑤口⑥① |②---|
③②口口 |③-④-|
②口口口 |⑤-⑥-|
35
①④口口 |①-②-|
⑦口⑧⑥ |③-④-|
⑤④①口 |⑤-⑥-|
③口②⑥ |⑦-⑧-|
36
①口①⑤ |①---|
④口口④ |②---|
③口口口 |③---|
②口③③ |④-⑤-|
37
①口口口 |①-②-|
⑥口④口 |③-④-|
⑤②⑤口 |⑤---|
③口口⑥ |⑥---|
38
①①口② |①---|
④④口口 |②---|
③③口∧ |③---|
②②口口 |④---|
39
①①口① |①---|
口口④口 |②-③-|
③口口口 |④-⑤-|
⑤②口 |----|
40
④<口③ |①---|
②③口③ |②---|
②③②口 |③---|
口①②④ |④---|
41
①口口口 |①---|
④③②口 |②-③-|
□口口口 |④-⑤-|
口口>⑤ |----|
42
③口>④ |①---|
③口③② |②---|
①②③② |③---|
④②口① |④---|
43
口口口① |①---|
口②③④ |②-③-|
口口口口 |④-⑤-|
⑤<口口 |----|
44
④<口③ |①---|
②③口③ |②---|
②③②① |③---|
①口②④ |④---|
45
①口⑤④ |①---|
⑥口口口 |②-③-|
口口口口 |④-⑤-|
口②③口 |--⑥-|
46
口口口⑤ |①-②-|
口④<口 |④---|
①口口⑥ |⑤---|
②口口∧ |⑥---|

口口口口
口⑤口口
口口口口
口口□口
47
①>②口 |①---|
口口口口 |②---|
口口口① |--③-|
③<口口 |----|

口口③口
口口口口
口口口口
□口□口
48
④<口③ |①---|
②③口③ |②---|
②③②口 |③---|
①口②④ |④---|
49
①口口口 |①---|
④③②口 |②-③-|
□口口口 |④-⑤-|
口口>⑤ |----|
50
⑥⑦③③ |①---|
⑤⑤⑦⑥ |②-③-|
①口②② |④-⑤-|
④④口① |⑥-⑦-|
51
口口⑤③ |①-②-|
④口口⑤ |--③-|
①②③口 |④-⑤-|
口④②① |----|
52
口④口④ |----|
口口口③ |①-②-|
⑤口④② |③-④-|
口口口① |--⑤-|
53
②口②⑤ |①-②-|
①口④⑤ |--③-|
口②④口 |④-⑤-|
③③口⑥ |--⑥-|
54
口⑤口⑤ |①---|
⑥①④口 |②-③-|
①⑦口③ |④-⑤-|
口②②口 |⑥-⑦-|
55
③④<口 |①-②-|
口口口② |--③-|
口口口口 |④---|
①口口② |----|
56
⑥①口⑥ |--①-|
②口口② |--②-|
③□□③ |③-④-|
④⑤⑤④ |⑤-⑥-|
57
口②②口 |①-②-|
③④④③ |--③-|
⑤①①⑤ |④---|
口□□口 |⑤---|
58
口口②② |①---|
口④③③ |②---|
□口口□ |③---|
口①①口 |--④-|
59
②□口□ |①---|
口口□口 |②---|
∧□口口 |----|
①口口口 |----|
60
①①②① |①---|
口④①口 |②---|
④①⑤口 |③---|
口④口③ |④--⑤|
61
口口②② |①-②-|
④⑥③⑤ |③-④-|
⑦①□⑦ |⑤-⑥-|
④⑥③⑤ |⑦---|
62
口⑦⑥① |--①-|
③口②④ |--②-|
口②①④ |③-④-|
⑤口⑤③ |⑤-⑥⑦|
63
②⑦口① |①-②-|
⑥口⑥⑤ |③-④-|
②⑦④⑦ |⑤-⑥-|
⑥③⑥口 |--⑦-|

口口口⑦
口口口口
口口口口
口口□口
64
口口口口 |----|
口①③口 |①---|
口④⑤③ |②---|
②口③口 |③-④⑤|
65
①①口口 |--①-|
④②⑤③ |②-③-|
⑥口口⑥ |④-⑤-|
④②⑤③ |⑥---|
66
①⑥⑦① |--①-|
④③③口 |--②-|
④②⑤口 |③-④-|
②口口⑤ |⑤-⑥⑦|
67
①口口② |①-②-|
口④口② |③---|
口口⑤④ |④---|
③口<⑤ |⑤---|

口口口口
口口口口
口口口口
⑤口□口
68
口②口① |①---|
②口①口 |②---|
口②口口 |③-④-|
⑤④③口 |⑤---|
69
②口①口 |①-②-|
口②口① |--③-|
②口口口 |④-⑤-|
⑥⑤④③ |⑥---|
70
口口④① |①---|
口口①口 |②---|
②口口② |③-④-|
⑤③③⑥ |⑤-⑥-|
71
①③④③ |①-②-|
⑤③③③ |③---|
⑤③②③ |④---|
⑤⑤口口 |⑤---|
72
②口口⑤ |--①-|
口②⑤① |--②-|
口④③① |③-④-|
④□□③ |⑤---|
73
④口口⑤ |①-②-|
②④⑤口 |--③-|
②⑥③口 |④-⑤-|
⑥①①③ |⑥---|
74
口⑦③口 |①---|
口口⑤口 |②-③-|
①口④① |④-⑤-|
⑥⑥②② |⑥-⑦-|
75
③口口③ |①-②-|
口②口口 |③---|
∧①口∧ |----|
口口口口 |--④-|

④口口④
口口口口
口口口口
口口□口
76
□①①□ |--①-|
口口口口 |--②-|
口⑤⑥口 |③-④-|
④③②口 |⑤-⑥-|
77
③口口③ |①-②-|
口②①口 |③---|
∧口口∧ |----|
口口口口 |--④-|

④口口④
口口口口
口口口口
口口□口
78
口口①口 |--①-|
口①口口 |--②-|
口④①口 |③-④-|
②③⑥⑤ |⑤-⑥-|
79
②口口② |①-②-|
口口口口 |----|
口口①口 |----|
口口口口 |----|
80
□①②口 |----|
①①②② |①---|
①口口② |②---|
口口③□ |--③-|
81
①口口② |①---|
口口口③ |②---|
V④⑤⑥ |③-④⑤|
②⑦口① |⑥-⑦-|

口口口口
口口口口
口口口口
③口□口
82
⑥④①② |①-②-|
④⑥口口 |③-④-|
口口口口 |⑤-⑥-|
口⑦⑤③ |⑦-⑧-|

口口⑧口
口口□⑧
口口口口
□口口口
83
口口口② |①-②-|
④口②口 |③---|
⑦⑥⑤V |④-⑤⑥|
①口⑧③ |⑦-⑧-|

口口口口
□口口口
口口口口
□口口④
84
②①④⑥ |①-②-|
口口⑥④ |③-④-|
口口口口 |⑤-⑥-|
③⑤⑦口 |⑦-⑧-|

口⑧口口
⑧口口口
口口口口
□口口口
85
②口口口 |①-②-|
口②口④ |③---|
V⑤⑥⑦ |④-⑤⑥|
③⑧口① |⑦-⑧-|

口口口口
□口口口
口口口口
④口口□
86
⑥④①② |①-②-|
④⑥口口 |③-④-|
口口口口 |⑤-⑥-|
口⑦⑤③ |⑦-⑧-|

口口⑧口
口口□⑧
口口口口
□口口口
87
口③⑤② |①-②-|
③口②⑤ |③---|
口③⑤④ |④---|
①口④④ |⑤---|
88
④③口③ |①---|
④口②口 |②---|
①②>④ |③---|
①①>④ |④---|
89
口口口口 |①---|
口④⑤⑥ |②---|
V⑦口① |③-④⑤|
②口口① |⑥-⑦-|

口口口口
□口口口
口口口口
③口口□
90
口②>① |--①-|
③④⑤口 |--②-|
⑤⑥③口 |③-④-|
口口口口 |⑤-⑥-|

口口口②
□口口口
口口口口
□口口□
91
口口口口 |①-②-|
⑦⑥⑤① |③---|
口口⑧V |④-⑤⑥|
①②口③ |⑦-⑧-|

口口口口
□口口口
口口口口
□口口④
92
①<②口 |--①-|
口口④③ |--②-|
③⑤⑥⑤ |③-④-|
口口口口 |⑤-⑥-|

②口□口
□口口口
口口口口
□口口□
93
③⑥④④ |①-②-|
③①口口 |③---|
口口口口 |④-⑤-|
⑤⑤②① |--⑥-|

口口口口
□口口口
口口口口
□口口⑥
94
④口口口 |--①-|
③>口① |--②-|
②>口① |③-④-|
口⑤⑤口 |⑤---|
95
口①①口 |①---|
②口口① |--②-|
③口口① |③-④-|
④口⑤□ |--⑤-|
96
④口<④ |①---|
V③③∧ |②-②-|
④>口④ |--③-|
口②口① |④---|
97
□口口□ |----|
口口口口 |----|
□口口□ |----|
口口口口 |----|
98
□口口□ |----|
口口口口 |----|
□口口□ |----|
口口口口 |----|
99
①口口① |----|
口口口口 |----|
①口口① |----|
口口口口 |①---|
最終更新:2019年11月11日 13:39