アットウィキロゴ
ただ君に晴れ
ヨルシカ

BASIC

Level: 1
BPM: 140
Notes: 87

1
口口口口 |----|
口口口口 |----|
口口口口 |----|
口口口口 |----|
2
口口口口 |①---|
口①口口 |----|
口口口口 |----|
口口口口 |----|
3
口口口口 |①---|
口口①口 |----|
口口口口 |----|
口口口口 |----|
4
口口口口 |①---|
口口口口 |----|
口①口口 |----|
口口口口 |----|
5
口口口口 |①---|
口口口口 |----|
口口①口 |----|
口口口口 |----|
6
口口口口 |①---|
口①口口 |----|
口口口口 |----|
口口口口 |----|
7
口口口口 |①---|
口口①口 |----|
口口口口 |----|
口口口口 |----|
8
口口口口 |①---|
口口口口 |----|
口①口口 |----|
口口口口 |----|
9
口口口口 |①---|
口口口口 |----|
口口①口 |----|
口口口口 |----|
10
①口口口 |①---|
口口口口 |----|
口口口口 |----|
口口口口 |----|
11
口①口口 |①---|
口口口口 |----|
口口口口 |----|
口口口口 |----|
12
口口①口 |①---|
口口口口 |----|
口口口口 |----|
口口口口 |----|
13
口口口① |①---|
口口口口 |----|
口口口口 |----|
口口口口 |----|
14
口口口口 |①---|
口口口① |----|
口口口口 |----|
口口口口 |----|
15
口口口口 |①---|
口口①口 |----|
口口口口 |----|
口口口口 |----|
16
口口口口 |①---|
口①口口 |----|
口口口口 |----|
口口口口 |----|
17
口口口口 |①---|
①口口口 |----|
口口口口 |----|
口口口口 |----|
18
口①②口 |①---|
口口口口 |----|
口口口口 |②---|
口口口口 |----|
19
口口口① |①---|
口口口口 |----|
口口口口 |----|
口口口口 |----|
20
口口口口 |①---|
口②①口 |----|
口口口口 |②---|
口口口口 |----|
21
口口口口 |①---|
①口口口 |----|
口口口口 |----|
口口口口 |----|
22
口口口口 |①---|
口口口口 |----|
口①②口 |②---|
口口口口 |----|
23
口口口口 |①---|
口口口口 |----|
口口口① |----|
口口口口 |----|
24
口口口口 |①---|
口口口口 |----|
口口口口 |②---|
口②①口 |----|
25
口口口口 |①---|
口口口口 |----|
口口口口 |----|
①口口口 |----|
26
口口口口 |①---|
口口口口 |----|
口口口口 |②---|
口①②口 |----|
27
口口口口 |①---|
口口口口 |----|
口口口口 |----|
口口口① |----|
28
口口口口 |①---|
口口口口 |----|
口②①口 |②---|
口口口口 |----|
29
口口口口 |①---|
口口口口 |----|
①口口口 |----|
口口口口 |----|
30
口口口口 |①---|
口①②口 |----|
口口口口 |②---|
口口口口 |----|
31
口口口口 |①---|
口口口① |----|
口口口口 |----|
口口口口 |----|
32
口②①口 |①---|
口口口口 |----|
口口口口 |②---|
口口口口 |----|
33
①口口口 |①---|
口②②口 |----|
口口口口 |②---|
口口口口 |----|
34
口②①口 |①---|
口口口口 |----|
口口口口 |②---|
口口口口 |----|
35
口口口口 |①---|
口②①口 |----|
口口口口 |②---|
口口口口 |----|
36
口口口口 |①---|
口口口口 |----|
口②①口 |②---|
口口口口 |----|
37
口口口口 |①---|
③口口③ |----|
②口口② |②---|
口口①口 |③---|
38
口①②口 |①---|
口口口口 |----|
口口口口 |②---|
口口口口 |----|
39
口口口口 |①---|
口①②口 |----|
口口口口 |②---|
口口口口 |----|
40
口口口口 |①---|
口口口口 |----|
口①②口 |②---|
口口口口 |----|
41
口口口口 |①---|
③口口③ |----|
②口口② |②---|
口①口口 |③---|
42
口口口口 |①---|
口②①口 |----|
口口口口 |②---|
口口口口 |----|
43
口口口口 |①---|
口口口口 |----|
口②①口 |②---|
口口口口 |----|
44
口口口口 |①---|
①②口口 |----|
口口口口 |②---|
口口口口 |----|
45
口口口口 |①---|
口口①② |----|
口口口口 |②---|
口口口口 |----|
46
口口口口 |①---|
口口口口 |----|
口口②① |②---|
口口口口 |----|
47
口口口口 |①---|
口口口口 |----|
②①口口 |②---|
口口口口 |----|
48
口口口口 |①---|
①②口口 |----|
口口口口 |②---|
口口口口 |----|
49
口口口口 |①---|
口口①② |----|
口口口口 |②---|
口口口口 |----|
50
口口口口 |①---|
口口口口 |----|
口口②① |②---|
口口口口 |----|
51
③口口③ |①---|
口②②口 |----|
口①口口 |②---|
口口口口 |③---|

accuracy: 99.5%
最終更新:2023年01月17日 11:34