アットウィキロゴ
ただ君に晴れ
ヨルシカ

ADVANCED

Level: 6
BPM: 140
Notes: 340

1
口口口口 |----|
口口口口 |----|
口②①口 |----|
口口口口 |①-②-|
2
口口口口 |①---|
③口①② |--②-|
口⑤④口 |③---|
口口口口 |④-⑤-|
3
口口口口 |①---|
口口口口 |----|
口③②口 |----|
口口①口 |②-③-|
4
口口口口 |①---|
口口①② |--②-|
口口口口
口口口口

③口口口
口⑤④口
口口口口 |③---|
口口口口 |④-⑤-|
5
口口口口 |①-②-|
口⑦⑥口 |③-④-|
口②①⑤ |⑤---|
口④③口 |⑥-⑦-|
6
口口口口 |①---|
口口口口 |--②-|
③口①② |③---|
口⑤④口 |④-⑤-|
7
③口口④ |①---|
口②口口 |②---|
口口①口 |③---|
口口口口 |④---|
8
口口口口 |①-②-|
口口口口 |③-④-|
口②①口
口④③口

口口口口
口⑦口⑤
口口⑥口 |--⑤-|
口口口口 |⑥-⑦-|
9
口②口④ |--①-|
①口③口 |②-③-|
口口口口 |④---|
口⑤口口 |--⑤-|
10
口口口口 |①-②-|
②③⑤④ |③-④-|
⑥⑦口⑧ |⑤-⑥-|
口口①口 |⑦-⑧-|
11
口口口口 |①-②-|
口口口口 |③-④-|
⑥⑦①口 |⑤-⑥-|
②③⑤④ |⑦---|
12
③④②① |①-②-|
⑦⑧⑥⑤ |③-④-|
口口口口 |⑤-⑥-|
口口口口 |⑦-⑧-|
13
口口口口 |①-②-|
口口口口 |③-④-|
③④②① |⑤-⑥-|
口⑦⑥⑤ |⑦---|
14
③⑦⑤① |①-②-|
④⑧⑥② |③-④-|
口口口口 |⑤-⑥-|
口口口口 |⑦-⑧-|
15
口口口口 |①-②-|
③口口① |③-④-|
④口口②
口口口口

口口口口
口口口口
口口⑦⑧ |⑤-⑥-|
口⑥⑤口 |⑦-⑧-|
16
口口口口 |①-②-|
③⑦⑤① |③-④-|
②⑥④⑧ |⑤-⑥-|
口口口口 |⑦-⑧-|
17
⑦⑥⑤④ |①-②-|
③口口① |③-④-|
②口口口 |⑤-⑥-|
口口口口 |⑦---|
18
口口口① |①---|
口口⑤④ |--②-|
口②③口 |③---|
口口口口 |④-⑤-|
19
口口口口 |①---|
口①口口 |----|
口口口口 |----|
口③②口 |②-③-|
20
④口口口 |①---|
口⑤③② |--②-|
口口①口 |③---|
口口口口 |④-⑤-|
21
口口口口 |①-②-|
口口口口 |③-④-|
口①④口
口②③口

口口口口
口口⑤口
口口口口 |⑤---|
口⑥⑦口 |⑥-⑦-|
22
口口口口 |①---|
②③口口 |--②-|
口①⑤④ |③---|
口口口口 |④-⑤-|
23
④口口口 |①---|
口口口口 |--②-|
口①口口 |③---|
口③②口 |④---|
24
口口①口 |①-②-|
口②⑦口 |③-④-|
口⑥③口 |--⑤-|
口④⑤口 |⑥-⑦-|
25
口口口口 |----|
口口口口 |----|
口①口口 |----|
口口②口 |①-②-|
26
口口口口 |①---|
④⑤①① |--②-|
口口②口 |③---|
口③口口 |④-⑤-|
27
口口口口 |①---|
口口①口 |----|
口口②口 |----|
口③口口 |②-③-|
28
②口口口 |①---|
①①口口 |--②-|
口口口口
口口口口

口口口③
口④⑤口
口⑥口口 |③-④-|
口口口口 |⑤-⑥-|
29
口④⑤口 |①-②-|
口口口口 |③-④-|
②⑥①③ |⑤---|
口口⑦口 |⑥-⑦-|
30
口口口口 |①---|
③③①① |--②-|
口④⑤口 |③---|
口②口口 |④-⑤-|
31
①①口④ |①---|
②②口口 |②---|
③③口口 |③---|
口口口口 |④---|
32
口口口口 |①---|
②口口口 |②---|
口口①①
口口口口

口口口口
口口口口
口④⑤口 |③---|
③③口口 |④-⑤-|
33
口口口口 |--①-|
③③④④ |②-③-|
口口口口 |④---|
口①②口 |----|
34
口口口口 |①-②-|
①⑦③⑤ |③-④-|
⑧②⑥④ |⑤-⑥-|
口口口口 |⑦-⑧-|
35
①①③③ |①-②-|
⑤口口⑤ |③-④-|
口②④口 |⑤---|
口⑥⑥口 |⑥---|
36
口口口口 |①-②-|
⑧②⑥④ |③-④-|
①⑦③⑤ |⑤-⑥-|
口口口口 |⑦-⑧-|
37
⑥⑥③口 |①-②-|
口④⑤② |③-④-|
⑦⑦①口 |⑤-⑥-|
口口口口 |⑦---|
38
口口口口 |①-②-|
⑤③⑦① |③-④-|
④⑥②⑧ |⑤-⑥-|
口口口口 |⑦-⑧-|
39
③③①① |①-②-|
口⑦⑦口 |③-④-|
⑤④②⑤ |⑤-⑥-|
⑥口口⑥ |⑦---|
40
口口口口 |①-②-|
④口口④ |③-④-|
口①②口
口③口口

口⑤⑤口
口⑥⑥口
口⑦⑦口 |--⑤-|
口口口口 |⑥-⑦-|
41
④③②① |--①-|
口口口口 |②-③-|
口⑤⑤口 |④---|
口口口口 |⑤---|
42
口口口口 |①-②-|
⑦⑥⑤口 |③-④-|
④口口③ |--⑤-|
口②①口 |⑥-⑦-|
43
口口口口 |--①-|
口口口口 |②-③-|
口②①口 |④---|
口④③⑤ |--⑤-|
44
口口口口 |①-②-|
②③⑤④ |③-④-|
⑥⑦口⑧ |⑤-⑥-|
口口①口 |⑦-⑧-|
45
口口口口 |①-②-|
口口口口 |③-④-|
⑥⑦①口 |⑤-⑥-|
②③⑤④ |⑦---|
46
③④②① |①-②-|
⑦⑧⑥⑤ |③-④-|
口口口口 |⑤-⑥-|
口口口口 |⑦-⑧-|
47
口口口口 |①-②-|
口口口口 |③-④-|
③④②① |⑤-⑥-|
口⑦⑥⑤ |⑦---|
48
③⑦⑤① |①-②-|
④⑧⑥② |③-④-|
口口口口 |⑤-⑥-|
口口口口 |⑦-⑧-|
49
口口口口 |①-②-|
③口口① |③-④-|
④口口②
口口口口

口口口口
口口口口
口口⑦⑧ |⑤-⑥-|
口⑥⑤口 |⑦-⑧-|
50
口口口口 |①-②-|
③⑦⑤① |③-④-|
②⑥④⑧ |⑤-⑥-|
口口口口 |⑦-⑧-|
51
口口口④ |①-②-|
③⑤⑤① |③-④-|
②⑥⑥口 |⑤-⑥-|
口⑦⑦口 |⑦---|

accuracy: 99.5%
最終更新:2023年01月17日 11:35