アットウィキロゴ
ただ君に晴れ
ヨルシカ

EXTREME

Level: 8
BPM: 140
Notes: 481

1
口口口口 |----|
口口口口 |----|
口①口口 |----|
口口②口 |①-②-|
2
口口口口 |①---|
口口口② |--②-|
①口口口
口口口口

口口⑥口
口③口口
⑤口口口 |③-④-|
口口④口 |⑤-⑥-|
3
口口口口 |①---|
口②口口 |----|
口①③口 |----|
口口口口 |②-③-|
4
①口口⑥ |①---|
⑤口②口 |--②-|
口③口口 |③-④-|
口口④口 |⑤-⑥-|
5
⑤①口口 |①-②-|
口口②④ |③-④-|
口③⑥口 |⑤---|
口⑦口口 |⑥-⑦-|
6
口口口② |①---|
口口①口 |--②-|
口口口口
口口口口

口口口口
口③⑥口
⑤口口口 |③-④-|
口口④口 |⑤-⑥-|
7
①口口④ |①---|
口②口口 |②---|
口口③口 |③---|
口口口口 |④---|
8
口口口口 |①-②-|
口口④口 |③-④-|
口①口口
口③②口

口⑤口口
口口口⑥
口⑦口口 |--⑤-|
口口口口 |⑥-⑦-|
9
口③②口 |--①-|
口④①口 |②-③-|
口口口口 |④---|
口⑤口口 |--⑤-|
10
②③④口 |①-②③|
口口①口 |④-⑤-|
口口口口
口口⑤口

口⑩口口
口口口口
口⑨⑧⑦ |⑥-⑦⑧|
⑥口口口 |⑨-⑩-|
11
口口口① |①-②③|
②③④口 |④-⑤-|
口口口口
口口⑤口

口口口口
⑧口口口
口⑦口口 |⑥-⑦-|
⑥口口口 |⑧---|
12
②③④口 |①-②③|
口口①口 |④-⑤-|
口口口口
口口⑤口

口⑩口口
口口口口
口⑨⑧⑦ |⑥-⑦⑧|
⑥口口口 |⑨-⑩-|
13
口口口① |①-②③|
②③④口 |④-⑤-|
口口口口
口口⑤口

口口⑨⑨
⑧口口口
口⑦口口 |⑥-⑦-|
⑥口口口 |⑧-⑨-|
14
①①口口 |①-②③|
口口②⑤ |④-⑤-|
口口③口
口口④口

口⑨口口
⑥⑧口口
口⑦口口 |⑥-⑦⑧|
口⑩口口 |⑨-⑩-|
15
口口口⑤ |①-②③|
口⑨⑩② |④-⑤-|
⑥口⑧③ |⑥-⑦-|
口⑦①④ |⑧-⑨⑩|
16
④③②口 |①-②③|
口口口① |④-⑤⑥|
口口口口
口⑥⑤口

口口⑩口
口口⑨口
⑪⑧⑦口 |⑦⑧⑨-|
口口口口 |⑩-⑪-|
17
②口⑩① |①②③④|
④⑪⑥③ |⑤-⑥-|
⑦⑧⑨⑤ |⑦⑧⑨-|
口口口口 |⑩-⑪-|
18
①①口② |①---|
口口口⑤ |②-③-|
⑦③口口 |④-⑤-|
口⑥④口 |⑥-⑦-|
19
①①口② |①-②-|
口⑤口③ |--③-|
口口口④ |--④-|
口口⑥口 |⑤-⑥-|
20
口⑤①① |①---|
③口②口 |②-③-|
口口口⑥ |④-⑤-|
口⑦④口 |⑥-⑦-|
21
④口①口 |①-②-|
口②口③ |③-④-|
口口口口
口口口口

口⑥口口
口⑦口口
口口口口 |⑤---|
口口⑤⑤ |⑥-⑦-|
22
口口口口 |①---|
口口口② |--②-|
①⑤①口 |③---|
④口③口 |④-⑤-|
23
①①口口 |①---|
口口口口 |--②-|
口口口口
口②口口

口④口口
口④口口
口口口口 |③---|
口口③口 |④---|
24
④④⑦⑦ |①-②-|
口口口① |③-④-|
②口口⑤ |--⑤-|
口⑥③口 |⑥-⑦-|
25
口口口口 |--①-|
口⑤①口 |--②-|
④口②④ |--③-|
口口③口 |④-⑤-|
26
①①口② |①---|
④口⑤口 |②-③-|
口⑥口口 |④---|
口③③口 |⑤-⑥-|
27
①①口③ |①-②-|
口口口口 |③-④-|
口口④②
口口口口

口口⑦⑧
口口⑤⑥
⑧口口口 |⑤-⑥-|
口⑦口口 |⑦-⑧-|
28
①①口口 |①---|
口口口② |②-③-|
口③③口
口口口口

口口口口
④口口⑦
⑥口口口 |④-⑤-|
口⑤口⑦ |⑥-⑦-|
29
口口③① |①-②-|
口④②口 |③-④-|
口口口口
口④②口

口⑤口⑥
口口口口
口⑦口口 |⑤-⑥-|
口口⑧口 |⑦-⑧-|
30
③口口② |①---|
①①口口 |②-③-|
口口口口
口口口口

口口口口
⑥⑥⑤口
口④口口 |④-⑤-|
口⑦⑦口 |⑥-⑦-|
31
③①口口 |①-②-|
口口④③ |③-④-|
口口①②
口口口口

口口口口
口⑥口口
口⑤⑦口 |⑤---|
口⑥口口 |⑥-⑦-|
32
⑤⑤⑥⑥ |①---|
④口②① |②-③-|
口③口口 |④---|
④口②① |⑤-⑥-|
33
④④④④ |--①-|
①口口① |②-③-|
口口②口 |④---|
③③③③ |----|
34
③口口⑤ |①-②-|
⑦⑥⑧① |③-④-|
口⑧⑥口 |⑤-⑥-|
④②②④ |⑦-⑧-|
35
口①③口 |①-②-|
④口口② |③-④-|
④口口②
口③①口

⑥⑥口口
口⑤⑤口
口⑤⑤口 |⑤---|
口口⑥⑥ |⑥---|
36
口④口口 |①-②-|
口②③① |③-④-|
①③②口
口口④口

⑥口⑤⑤
口口口口
口⑦⑦口 |⑤---|
⑤⑤口⑥ |⑥-⑦-|
37
④口口口 |①-②-|
①口口② |③-④-|
②口口①
口③③④

口⑥⑦⑤
口⑥⑦口
口⑥⑦口 |⑤-⑥-|
⑤⑧⑧口 |⑦-⑧-|
38
③口口口 |①-②-|
②口口② |③-④-|
①④④①
口口口口

⑧⑧口⑤
口口口口
口口口⑦ |⑤-⑥-|
⑥⑥口口 |⑦-⑧-|
39
口口②② |①-②-|
口口口④ |③-④-|
④①③口
口③①口

⑦⑥口口
⑤口⑦口
口⑦口⑤ |⑤-⑥-|
口口⑥⑦ |⑦---|
40
④口口① |①-②-|
②④口口 |③-④-|
口口④③
口口口④

口口口口
口口⑤口
⑦⑥口⑦ |--⑤-|
口⑤口口 |⑥-⑦-|
41
口③②① |--①-|
①②③口 |②-③-|
口口口口
口口口口

⑤口口⑤
⑤口口⑤
口⑤⑤口 |④---|
口④④口 |⑤---|
42
④④③口 |①-②-|
口②口口 |③-④-|
口口口①
口口口口

口口口口
口⑦⑦口
口口口⑥ |--⑤-|
口⑤口口 |⑥-⑦-|
43
口③②⑦ |--①-|
④口口① |②-③-|
口口⑥口 |④-⑤-|
口口⑤口 |⑥-⑦-|
44
②③④口 |①-②③|
口口①口 |④-⑤-|
口口口口
口口⑤口

口⑩口口
口口口口
口⑨⑧⑦ |⑥-⑦⑧|
⑥口口口 |⑨-⑩-|
45
口口口① |①-②③|
②③④口 |④-⑤-|
口口口口
口口⑤口

口口口口
⑧口口口
口⑦口口 |⑥-⑦-|
⑥口口口 |⑧---|
46
②③④口 |①-②③|
口口①口 |④-⑤-|
口口口口
口口⑤口

口⑩口口
口口口口
口⑨⑧⑦ |⑥-⑦⑧|
⑥口口口 |⑨-⑩-|
47
口口口① |①-②③|
②③④口 |④-⑤-|
口口口口
口口⑤口

口口⑨⑨
⑧口口口
口⑦口口 |⑥-⑦-|
⑥口口口 |⑧-⑨-|
48
①①口口 |①-②③|
口口②⑤ |④-⑤-|
口口③口
口口④口

口⑨口口
⑥⑧口口
口⑦口口 |⑥-⑦⑧|
口⑩口口 |⑨-⑩-|
49
口口口⑤ |①-②③|
口⑨⑩② |④-⑤-|
⑥口⑧③ |⑥-⑦-|
口⑦①④ |⑧-⑨⑩|
50
④③②口 |①-②③|
口口口① |④-⑤⑥|
口口口口
口⑥⑤口

口口⑩口
口口⑨口
⑪⑧⑦口 |⑦⑧⑨-|
口口口口 |⑩-⑪-|
51
②口口① |①②③④|
④口⑥③ |⑤-⑥-|
口口口⑤
口口口口

⑩口⑩口
口⑩口口
口口口口 |⑦⑧⑨-|
⑦⑧⑨口 |⑩---|

accuracy: 99.5%
最終更新:2023年01月17日 11:35