アットウィキロゴ
NEVER SURRENDER
水樹奈々

BASIC

Level: 3
BPM: 166
Notes: 159

1
口口口口 |----|
口口口口 |----|
口口口口 |----|
口口口口 |----|
2
口口口口 |①---|
口①口口 |----|
口口口口 |----|
口口口口 |----|
3
口口口口 |----|
口口口口 |----|
口口口口 |----|
口口口口 |----|
4
口口口口 |----|
口口①口 |----|
口口口口 |①---|
口口口口 |----|
5
口口口口 |----|
口口口口 |----|
口口口口 |----|
口口口口 |----|
6
口口口口 |----|
口口口口 |----|
口口口口 |----|
口口口口 |----|
7
口口口口 |①---|
口口口口 |----|
口①①口 |----|
口口口口 |----|
8
口口口口 |①---|
口口口口 |----|
口口口口 |----|
口①①口 |----|
9
口口口口 |①---|
口①①口 |----|
口口口口 |----|
口口口口 |----|
10
①口口① |①---|
口口口口 |----|
口口口口 |----|
口口口口 |----|
11
口口口口 |----|
口口口口 |----|
①①口口 |----|
口口口口 |--①-|
12
口口口口 |----|
口口口口 |----|
口口①① |----|
口口口口 |--①-|
13
口口口口 |----|
①口口① |----|
口口口口 |----|
口口口口 |--①-|
14
口①口口 |----|
口口口口 |----|
口口口口 |①---|
口口口口 |----|
15
口口口口 |①---|
口口①口 |----|
口口口口
口口口口

口口口口
口口③③
口②口口 |②---|
口口口口 |--③-|
16
口口口口 |----|
①①口口 |----|
口口口口 |----|
口口口口 |--①-|
17
口口口口 |----|
口口口口 |----|
①口口① |----|
口口口口 |--①-|
18
口口口口 |----|
口①①口 |----|
口口口口 |----|
口口口口 |--①-|
19
口口口口 |----|
①口口① |--①-|
口口口口 |----|
口口口口 |----|
20
口口口口 |①---|
口口口口 |----|
①①①① |----|
口口口口 |----|
21
口口口口 |----|
口口口口 |----|
口口口口
口口口口
22
口口口口 |----|
口口口口 |----|
口口口口 |----|
口口口口 |----|
23
口口口口 |①---|
口口口口 |----|
口①口口 |----|
口口口口 |----|
24
口口口口 |①---|
口口口口 |----|
口口①口 |----|
口口口口 |----|
25
口口口口 |①---|
口口①口 |----|
口口口口 |----|
口口口口 |----|
26
口口口口 |①---|
口①口口 |----|
口口口口 |----|
口口口口 |----|
27
口口口口 |①---|
口口口口 |----|
口口口口 |----|
口①口口 |----|
28
口口口口 |①---|
口口口口 |----|
口口口口 |----|
口口①口 |----|
29
口口口口 |①---|
口口口口 |----|
口口①口 |----|
口口口口 |----|
30
口口口口 |①---|
口口口口 |----|
口①口口 |----|
口口口口 |----|
31
口口口口 |①---|
口口口口 |----|
口口②① |②---|
口口口口 |----|
32
口口口口 |①---|
口口口口 |----|
②①口口 |②---|
口口口口 |----|
33
口口口口 |①---|
口口口口 |----|
口①②口 |②---|
口口口口 |----|
34
口口口口 |①---|
口②②口 |----|
口口口① |②---|
口口口口 |----|
35
口口②① |①---|
口口口口 |----|
口口口口 |②---|
口口口口 |----|
36
口口口口 |①---|
口①①口 |----|
口口口口 |----|
口口口口 |----|
37
①②口口 |①---|
口口口口 |----|
口口口口 |②---|
口口口口 |----|
38
口口口口 |①---|
口①①口 |----|
口口口口 |----|
口口口口 |----|
39
口口口口 |①---|
口口口口 |----|
①口口① |----|
口口口口 |----|
40
口口口口 |①---|
①口口① |----|
口口口口 |----|
口口口口 |----|
41
①口口① |①---|
口②②口 |----|
口②②口 |----|
口口口口 |--②-|
42
口口口口 |----|
口口口口 |----|
口口口口 |----|
口口口口 |----|
43
口口口口 |----|
口口口口 |----|
口口口口 |----|
口口口口 |----|
44
①口口① |----|
口口口口 |----|
口口口口 |----|
口口口口 |--①-|
45
口口口口 |----|
②②②② |----|
①口口① |①---|
口口口口 |--②-|
46
口口口口 |----|
口口口口 |----|
口口口口 |----|
口口口口 |----|
47
口①口口 |①---|
口口②口 |----|
口口口口 |②---|
口口口口 |----|
48
口口口口 |①---|
口口口口 |----|
口①口口 |②---|
口口②口 |----|
49
口口口口 |①---|
口口口口 |----|
①①口口 |----|
口口口口 |----|
50
口口口口 |①---|
口口口口 |----|
口口①① |----|
口口口口 |----|
51
口口口口 |①---|
①②③① |----|
口③②口 |②---|
口口口口 |--③-|
52
①口口① |----|
口口口口 |----|
口口口口 |----|
口口口口 |--①-|
53
口口口口 |----|
②②②② |----|
①口口① |①---|
口口口口 |--②-|
54
口口口口 |----|
口口口口 |----|
口口口口 |----|
口口口口 |----|
55
口口①口 |①---|
口②口口 |----|
口口口口 |②---|
口口口口 |----|
56
口口口口 |①---|
口口口口 |----|
口口①口 |②---|
口②口口 |----|
57
口口口口 |①---|
口口口口 |----|
口口①① |----|
口口口口 |----|
58
口口口口 |①---|
口口口口 |----|
①①口口 |----|
口口口口 |----|
59
口口口口 |①---|
①口口口 |----|
口②口口 |②---|
口口口口 |----|
60
口口口口 |①---|
口口①口 |----|
口口口② |②---|
口口口口 |----|
61
口口口口 |①---|
口口口① |----|
口口②口 |②---|
口口口口 |----|
62
口口口口 |①---|
口①口口 |----|
②口口口 |②---|
口口口口 |----|
63
口口口口 |①---|
口口口口 |----|
口②②口 |②---|
口①①口 |----|
64
②口口② |①---|
口①①口 |----|
口口口口 |②---|
口口口口 |----|
65
口口口口 |①---|
口①②口 |----|
口口口口 |②---|
口口口口 |----|
66
口口口口 |①---|
口口口口 |----|
口②①口 |②---|
口口口口 |----|
67
口口口口 |①---|
①②②① |----|
口②②口 |----|
口口口口 |--②-|
68
口口口口 |----|
口口口口 |----|
口口①① |----|
口口口口 |--①-|
69
口口口口 |----|
口口口口 |----|
①①口口 |----|
口口口口 |--①-|
70
口口口口 |----|
①口口① |----|
口口口口 |----|
口口口口 |--①-|
71
口口①口 |----|
口口口口 |----|
口口口口 |①---|
口口口口 |----|
72
口口口口 |①---|
口①口口 |----|
口口口口
口口口口

口口口口
③③口口
口口②口 |②---|
口口口口 |--③-|
73
口口口口 |----|
口口①① |----|
口口口口 |----|
口口口口 |--①-|
74
口口口口 |----|
口口口口 |----|
①口口① |----|
口口口口 |--①-|
75
口口口口 |----|
口①①口 |----|
口口口口 |----|
口口口口 |--①-|
76
口口口口 |----|
①口口① |--①-|
口口口口 |----|
口口口口 |----|
77
口口口口 |①---|
口口口口 |----|
①①①① |----|
口口口口 |----|
78
口口口口 |----|
口口口口 |----|
口口口口 |----|
口口口口 |----|
79
口口口口 |----|
口口口口 |----|
口口口口 |①---|
①①①① |----|
80
口口口口 |----|
口口口口 |----|
口口口口 |----|
口口口口 |----|
81
口口口口 |----|
口口口口 |----|
口口口口 |----|
口口口口 |----|

accuracy: 99.5%
最終更新:2023年01月17日 11:22