アットウィキロゴ
NEVER SURRENDER
水樹奈々

ADVANCED

Level: 6
BPM: 166
Notes: 369

1
口口口口 |----|
口口口口 |----|
口口口口 |----|
口口口口 |----|
2
①口口口 |①---|
口②口口 |--②-|
口口③口 |----|
口口口口 |③---|
3
口口口口 |--①-|
口口口口 |----|
口口口口 |----|
口口口① |----|
4
口口口① |----|
口口②口 |----|
口口口口 |①---|
口口口口 |--②-|
5
口口口口 |----|
口口口口 |①---|
口①口口 |--②-|
②口口口 |----|
6
口口口口 |----|
口口口口 |----|
口口口口 |----|
口口口口 |----|
7
口①口口 |①---|
口口②口 |--②-|
口口口③ |----|
口口口口 |③---|
8
口口口口 |①---|
①口口口 |--②-|
口②口口 |----|
口口③口 |③---|
9
口口口口 |①---|
口①①口 |----|
口口口口 |----|
口口口口 |----|
10
口①口口 |①---|
①口口口 |----|
口口口口 |----|
口口口口 |----|
11
口口④口 |----|
口③口⑤ |--①-|
口口②口 |②-③-|
口①口口 |④-⑤-|
12
口口口口 |----|
①口口口 |①-②-|
④②口口 |--③-|
口口口③ |--④-|
13
口口②口 |--①-|
口③口① |②-③-|
口⑥口④ |--④-|
口口⑤口 |⑤-⑥-|
14
①口口① |----|
口口口口 |----|
口口口口 |①---|
口②②口 |--②-|
15
⑤口口口 |----|
口④②口 |--①-|
口①③口 |②-③-|
口口口口 |④-⑤-|
16
口口口口 |----|
③口口① |①-②-|
口④②口 |--③-|
口口⑤口 |④-⑤-|
17
口口口口 |----|
口②口口 |①-②-|
①⑤口③ |--③-|
口口④口 |④-⑤-|
18
③③口① |----|
口口②口 |----|
口口口口 |--①-|
口口口口 |②-③-|
19
口口口口 |--①-|
③③口① |②-③-|
口⑥②④ |--④-|
口口⑤口 |⑤-⑥-|
20
口口口口 |①---|
③③口口 |--②-|
口口②② |----|
①①口口 |③---|
21
口口①① |--①-|
口口口口 |----|
口口口口
口口口口
22
口口口口 |----|
口口口口 |----|
口口口口 |----|
口口口口 |----|
23
口口口口 |--①-|
③口口④ |②-③-|
①口口② |④-⑤-|
口⑤⑥口 |⑥---|
24
口口口口 |--①-|
③口口④ |②-③-|
①口口② |④-⑤-|
口⑤⑥口 |⑥---|
25
口口③口 |--①-|
④②口口 |②-③-|
①⑤口口 |--④-|
口口⑥口 |⑤-⑥-|
26
口口口口 |①-②-|
口③⑤口 |③-④-|
④口②口 |----|
口①口口 |--⑤-|
27
口①口口 |①---|
口⑤口③ |--②-|
口口④口 |--③-|
口②②口 |④-⑤-|
28
口口口口 |①---|
口口④口 |②-③-|
①⑤口② |--④-|
⑥口③口 |⑤-⑥-|
29
口口口口 |----|
口③口① |--①-|
④口②口 |②-③-|
口口口口 |④---|
30
口①①口 |①---|
口口口口 |--②-|
口口口口 |----|
口②②口 |----|
31
口口口口 |--①-|
③口口④ |②-③-|
①口口② |④-⑤-|
口⑤⑥口 |⑥---|
32
口口口口 |--①-|
③口口④ |②-③-|
①口口② |④-⑤-|
口⑤⑥口 |⑥---|
33
口口③口 |--①-|
④②⑥口 |②-③-|
①⑤口口 |--④-|
口口口口 |⑤-⑥-|
34
口口口① |①---|
口口④口 |--②-|
②口口口 |③---|
口③口口 |--④-|
35
③①④口 |①--②|
口口口② |--③-|
⑤口口⑥ |④--⑤|
口口口口 |--⑥-|
36
口口口口 |①---|
口②口口 |----|
口口口口 |----|
口口①口 |--②-|
37
口④①③ |①--②|
②口口口 |--③-|
⑥口口⑤ |④--⑤|
口口口口 |--⑥-|
38
口口口口 |①---|
口口②口 |----|
口口口口 |----|
口①口口 |--②-|
39
③①④口 |①--②|
口口口② |--③-|
⑤口口⑥ |④--⑤|
口口口口 |--⑥-|
40
②口③口 |①---|
口口①口 |--②-|
④口口⑤ |③--④|
口口口口 |--⑤-|
41
④口口④ |①---|
口①①口 |----|
口②③口 |--②-|
口口口口 |③-④-|
42
口口口口 |----|
口口口口 |----|
口口口口 |----|
口口口口 |----|
43
口口口口 |----|
口口口口 |----|
口口口口 |①---|
①口②口 |②---|
44
③口①③ |①---|
③口口③ |----|
口口口口 |②---|
口口口② |--③-|
45
口①口口 |--①-|
⑥口②⑥ |②-③-|
口③口口 |④-⑤-|
口⑤④口 |--⑥-|
46
④口口③ |--①-|
④口③口 |②-③-|
口②①口 |----|
②口口① |--④-|
47
口④口③ |--①-|
⑥②口⑤ |②-③-|
口口口① |④-⑤-|
口口口口 |--⑥-|
48
口口口口 |--①-|
口口④口 |②-③-|
口口口① |----|
口③②口 |--④-|
49
口④⑤① |①---|
③口口口 |--②-|
口②②口 |--③-|
口口口口 |④-⑤-|
50
⑤口口口 |①-②-|
口口④① |③-④-|
口③②口 |----|
口口口口 |--⑤-|
51
口①口② |①--②|
口口口口 |--③-|
③口口口
口口口口

口⑥⑤口
口⑤⑥口
口④口口 |④---|
口口口口 |⑤-⑥-|
52
④口口④ |----|
④口口④ |--①-|
口③②口 |②-③-|
口口口① |--④-|
53
口口①口 |--①-|
口②⑦口 |②-③-|
口口③⑥ |④-⑤-|
口④⑤口 |⑥-⑦-|
54
③口口④ |--①-|
口③口④ |②-③-|
口①②口 |----|
①口口② |--④-|
55
③口④口 |--①-|
⑤口②口 |②-③-|
①口⑥口 |④-⑤-|
⑦口口口 |⑥-⑦-|
56
口口口口 |--①-|
口④口口 |②-③-|
①口口口 |----|
口②③口 |--④-|
57
①⑤④口 |①---|
口口口③ |--②-|
口②②口 |--③-|
口口口口 |④-⑤-|
58
口口⑤⑤ |①-②-|
①④口口 |③-④-|
口②③口 |----|
口口口口 |⑤---|
59
②口口口 |①---|
②口口口 |----|
口口口口 |----|
①①口口 |②---|
60
口②②③ |①---|
口口④口 |--②-|
口⑤口① |--③-|
口口口① |④-⑤-|
61
口口口口 |①---|
①口口② |②-③-|
口口口口 |----|
口③③口 |----|
62
口口②口 |----|
口①口口 |①-②-|
③口口④ |--③-|
口口口口 |--④-|
63
口口口口 |①---|
口口①口 |----|
④③③④ |②---|
②口口口 |③-④-|
64
①①①① |----|
②口口③ |--①-|
口②③口 |--②-|
口口口口 |--③-|
65
口口口口 |①-②-|
口①②口 |③-④-|
口口口口 |----|
口③④口 |----|
66
口②口口 |----|
口口①口 |①-②-|
④口口③ |--③-|
口口口口 |--④-|
67
口口口口 |①---|
口①①口 |----|
口③③口 |----|
②③③② |②-③-|
68
①口口① |----|
口口口口 |----|
口口口口 |----|
口口口口 |--①-|
69
口口口口 |----|
口口口① |①-②-|
口口②④ |--③-|
③口口口 |--④-|
70
口②口口 |--①-|
①口③口 |②-③-|
④口⑥口 |--④-|
口⑤口口 |⑤-⑥-|
71
①口口① |----|
口口口口 |----|
口口口口 |①---|
口②②口 |--②-|
72
口口口⑤ |----|
口②④口 |--①-|
口③①口 |②-③-|
口口口口 |④-⑤-|
73
口口口口 |----|
①口口③ |①-②-|
口②④口 |--③-|
口⑤口口 |④-⑤-|
74
口口口口 |----|
口口②口 |①-②-|
③口⑤① |--③-|
口④口口 |④-⑤-|
75
①口③③ |----|
口②口口 |----|
口口口口 |--①-|
口口口口 |②-③-|
76
口口口口 |--①-|
①口③③ |②-③-|
④②⑥口 |--④-|
口⑤口口 |⑤-⑥-|
77
口口口口 |①---|
口口③③ |--②-|
②②口口 |----|
口口①① |③---|
78
①①口口 |--①-|
口口口口 |----|
口口口口 |----|
口口口口 |----|
79
口口口口 |----|
口口口口 |----|
①口口① |①---|
口①①口 |----|
80
口口口口 |----|
口口口口 |----|
口口口口 |----|
口口口口 |----|
81
口口口口 |----|
口口口口 |----|
口口口口 |----|
口口口口 |----|

accuracy: 99.5%
最終更新:2023年01月17日 11:23