アットウィキロゴ
NEVER SURRENDER
水樹奈々

EXTREME

Level: 9.0
BPM: 166
Notes: 672

1
口口口口 |----|
口口口口 |----|
口口口口 |----|
口口口口 |----|
2
口①口口 |①-②-|
④⑦②口 |③-④-|
口⑤⑧③ |⑤-⑥-|
口口⑥口 |⑦-⑧-|
3
口口口口 |①-②-|
口口口口 |----|
口口口口 |----|
②口口① |----|
4
口①口口 |----|
④口②口 |----|
口口口③ |①-②-|
口口口口 |③-④-|
5
口口口口 |①-②-|
口③口口 |③-④-|
口①④口 |⑤-⑥-|
⑥口②⑤ |----|
6
口口口口 |----|
口口口口 |----|
口口口口 |----|
口口口口 |----|
7
①①口口 |①---|
口口口② |--②-|
口口口② |----|
③③口口 |③---|
8
口口口口 |①---|
②口口口 |--②-|
②口口口
口口①①

口口口口
口口口口
口口口口 |----|
口口③③ |③---|
9
①口口口 |①---|
口①口口 |----|
口口口口 |----|
口口口口 |----|
10
口①口口 |①---|
①口口口 |----|
口口口口 |----|
口口口口 |----|
11
①口口① |①---|
口口口口 |--②-|
口口口口
口②口口

⑤口口口
⑥④口⑥
口口③口 |③-④-|
口口口口 |⑤-⑥-|
12
口口口① |----|
④口②④ |①-②-|
口口口口 |--③-|
③口口口 |--④-|
13
口口口口 |--①-|
口②口口 |②-③-|
③口①口
口口口口

口口口口
口口口口
口⑥⑥④ |--④-|
口口⑤口 |⑤-⑥-|
14
①②③口 |----|
④口⑤口 |--①②|
⑥口口口 |③-④-|
口口口口 |⑤-⑥-|
15
⑥口口⑦ |--①-|
④⑥⑦⑤ |②-③-|
口④⑤③ |④-⑤-|
口②③① |⑥-⑦-|
16
口口口③ |----|
口口④口 |①-②-|
①⑤⑤② |--③-|
口①②口 |④-⑤-|
17
口②口口 |----|
①口口口 |①-②-|
口⑤⑤③ |--③-|
口口④口 |④-⑤-|
18
口⑧口① |--①-|
⑧口口② |②-③-|
口⑥⑦③ |--④⑤|
口④⑤口 |⑥⑦⑧-|
19
口口⑥口 |--①-|
口⑤口② |②-③-|
③口④① |--④-|
口③口口 |⑤-⑥-|
20
口口口口 |①---|
②口口② |--②-|
口口②①
①口①口

口口口口
口口口口
③③口口 |----|
口口③③ |③---|
21
口口口口 |--①-|
①①口口 |----|
口口①①
口口口口
22
①②③④ |①②③④|
⑧⑦⑥⑤ |⑤⑥⑦⑧|
⑨⑩⑪⑫ |⑨⑩⑪⑫|
⑯⑮⑭⑬ |⑬⑭⑮⑯|
23
②口口① |①-②-|
⑤③口口 |③-④-|
口⑥④口 |⑤-⑥-|
口口⑦口 |⑦---|
24
②口口口 |①-②-|
⑤③口① |③-④-|
口⑥④口 |⑤-⑥-|
口口⑦口 |⑦---|
25
口口④口 |①-②-|
⑤③口口 |③-④-|
②⑥口① |--⑤-|
口口⑦口 |⑥-⑦-|
26
口口口口 |①-②-|
口③口口 |③-④-|
④口②口
口①口①

口口口口
口口口口
口口口口 |----|
口⑥⑤口 |--⑤⑥|
27
口②口① |①---|
口④口口 |--②-|
③口⑤口 |--③-|
①口口口 |④-⑤-|
28
④口口口 |①---|
②⑤口① |②-③-|
⑥③口口 |--④-|
口①口口 |⑤-⑥-|
29
口⑤口口 |①---|
④口口口 |--②-|
口③⑥① |③-④-|
口口②口 |⑤--⑥|
30
①口口② |①---|
口③④口 |--②-|
①⑤口② |--③④|
口口口⑥ |⑤-⑥-|
31
⑦口口口 |①-②-|
⑤⑦⑥⑤ |③-④-|
③口③④ |⑤-⑥-|
①口②口 |⑦---|
32
⑦口口口 |①-②-|
⑤⑦⑥⑤ |③-④-|
③口③④ |⑤-⑥-|
①口②口 |⑦---|
33
⑦口口④ |①-②-|
⑤口⑧③ |③-④-|
③口⑦② |⑤-⑥-|
①口⑥口 |⑦-⑧-|
34
⑤口①口 |①---|
④口⑦⑥ |②-③-|
②口口③ |④---|
①口④口 |⑤-⑥⑦|
35
④口口口 |①--②|
口①口⑤ |--③-|
③⑥口口 |④--⑤|
口口⑥② |--⑥-|
36
②④④② |①---|
⑤⑥口口 |②---|
口口①口 |③---|
③①口③ |④-⑤⑥|
37
②④口③ |①--②|
口⑥①⑤ |--③-|
②④口③ |④--⑤|
口⑥口⑤ |--⑥-|
38
②口口② |①---|
口口①口 |②---|
口口口口
口口①口

口④④口
口口⑥⑤
口口口口 |③---|
③口口③ |④-⑤⑥|
39
⑤口口④ |①--②|
口①口口 |--③-|
③⑥⑥② |④--⑤|
口口口口 |--⑥-|
40
⑤①①口 |①---|
②③④口 |--②③|
⑥口口口 |④--⑤|
口口口口 |--⑥-|
41
口①①口 |①---|
口口口① |②-③-|
口口口口
口②③口

口口口⑦
⑤⑦⑦⑥
⑤④⑤⑥ |④-⑤-|
口口口口 |⑥-⑦-|
42
⑦口口⑦ |--①-|
口⑤⑥口 |②-③-|
口③④口 |④-⑤-|
口①②口 |⑥-⑦-|
43
口口口口 |----|
口口口口 |----|
口口口口 |①---|
②口口① |②---|
44
③口口① |①---|
口③①口 |----|
口②③① |②---|
②口②③ |--③-|
45
⑥口③④ |--①-|
①⑥口② |②-③-|
②口口① |④-⑤-|
⑤③口口 |--⑥-|
46
口②口③ |--①-|
③口③② |②-③-|
①③②①
口口①口

④口口口
口口口口
口口口⑥ |--④-|
⑤口口⑥ |⑤-⑥-|
47
口④③口 |--①-|
④②⑤③ |②-③-|
①⑤②⑥ |④-⑤-|
⑥①⑥口 |--⑥-|
48
①口口口 |--①-|
⑥②⑥口 |②-③-|
⑤口③口 |--④-|
④口口口 |⑤-⑥-|
49
①口①口 |①---|
口⑤口② |--②-|
口口口④ |--③-|
口③口② |④-⑤-|
50
④口④① |①-②-|
⑦口⑦口 |③-④-|
口口口⑥ |--⑤-|
③⑤口② |⑥-⑦-|
51
口①口① |①--②|
口口口口 |--③-|
②口口口
口③②口

⑤口④⑥
口⑤⑥口
口⑥⑤口 |④---|
⑥口口⑤ |⑤-⑥-|
52
口口⑤⑤ |--①-|
①④口① |--②-|
①口③① |③-④-|
口②⑤⑤ |--⑤-|
53
①③⑤⑦ |--①-|
②④⑥口 |②-③-|
①③⑤⑦ |④-⑤-|
②④⑥口 |⑥-⑦-|
54
④口③口 |--①-|
①②口③ |②-③-|
口口口⑥ |--④-|
⑤口口⑥ |⑤-⑥-|
55
口口③口 |--①-|
口②口③ |②-③-|
①口②口
口①口口

口④口口
④口⑤口
⑦⑤口⑥ |④-⑤-|
口⑦⑥口 |⑥-⑦-|
56
①口①口 |--①-|
②①②口 |--②-|
口②口口
口口口口

口口口口
口⑤口⑤
口口口④ |--③-|
口口口③ |④-⑤-|
57
口①口① |①---|
②口⑤口 |--②-|
④口口口 |--③-|
②口③口 |④-⑤-|
58
①④口④ |①-②-|
口口口口 |③-④-|
口口口口
②口口③

⑤口⑤口
口口口口
⑤口口口 |----|
口口口口 |⑤---|
59
口③口口 |①-②-|
③口口① |③---|
口口②口
口①口①

⑥口⑥口
口口口⑥
口⑤口口 |④-⑤-|
④口口口 |⑥---|
60
口③口② |①---|
②口④口 |--②-|
①⑤①② |--③-|
②口口口 |④-⑤-|
61
②⑦口② |①---|
⑦⑤⑥口 |②-③-|
口口④口 |④-⑤-|
③①①③ |⑥-⑦-|
62
②口③① |----|
口口口③ |①-②-|
④①②口 |--③-|
口④口口 |--④-|
63
口②③① |①---|
⑤口①④ |②---|
⑤口口④ |③---|
③口口② |④-⑤-|
64
③口口③ |--①-|
口③③口 |②-③-|
⑤③③④ |--④-|
②⑤④① |--⑤-|
65
③⑧⑧② |①-②-|
口口⑦口 |③-④-|
口⑥口口 |⑤-⑥-|
④口⑤① |⑦-⑧-|
66
口口口② |----|
口②口口 |①-②-|
④口①③ |--③-|
①③④口 |--④-|
67
③①①④ |①---|
①⑤⑥① |②---|
⑦⑨⑨⑧ |③④⑤⑥|
②⑨⑨② |⑦⑧⑨-|
68
口②③口 |--①-|
①口口④ |②-③-|
⑦口⑦⑤ |④-⑤-|
口⑦⑥⑦ |⑥-⑦-|
69
口口口① |----|
④口②④ |①-②-|
口口口口 |--③-|
③口口口 |--④-|
70
口口口口 |--①-|
口②口口 |②-③-|
③口①口
口口口口

口口口口
口口口口
口⑥⑥④ |--④-|
口口⑤口 |⑤-⑥-|
71
②③④口 |----|
⑤口⑥口 |①-②③|
⑦口口口 |④-⑤-|
①口口① |⑥-⑦-|
72
⑥口口⑦ |--①-|
④⑥⑦⑤ |②-③-|
口④⑤③ |④-⑤-|
口②③① |⑥-⑦-|
73
口口口③ |----|
口口④口 |①-②-|
①⑤⑤② |--③-|
口①②口 |④-⑤-|
74
口②口口 |----|
①口口口 |①-②-|
口⑤⑤③ |--③-|
口口④口 |④-⑤-|
75
④⑨口① |--①-|
⑨口口② |②-③-|
口⑦⑧③ |④-⑤⑥|
②⑤⑥口 |⑦⑧⑨-|
76
④⑥⑦④ |--①-|
口⑧⑨② |②-③-|
③⑤⑤① |④-⑤-|
口③口口 |⑥⑦⑧⑨|
77
口口口口 |①---|
②口口② |--②-|
口口②①
①口①口

口口口口
口口口口
③③口口 |----|
口口③③ |③---|
78
口口口口 |--①-|
①①口口 |----|
口口①①
口口口口

②③④⑤
⑨⑧⑦⑥
口口口口 |②③④⑤|
口口口口 |⑥⑦⑧⑨|
79
口口⑨口 |①②③④|
口口口⑨ |⑤⑥⑦⑧|
①②③④ |⑨---|
⑧⑦⑥⑤ |----|
80
口口口④ |----|
口口③口 |----|
口②口口 |---①②③|
①口口口 |④---|
81
口口口口 |---①|
①口口口 |----|
口口口口 |---②----|
③口口② |-----③|

accuracy: 99.5%
最終更新:2023年01月17日 11:23