アットウィキロゴ
スノ-ホワイト
RoughSketch

BASIC

Level: 5
BPM: 214
Notes: 276

1
口口口口 |----|
口口口口 |----|
口口口口 |----|
口口口口 |----|
2
口①口口 |①---|
口口口口 |----|
口口口口 |----|
口口口口 |----|
3
口口口口 |①---|
口口①口 |----|
口口口口 |----|
口口口口 |----|
4
口口口口 |①---|
口口口口 |----|
口①口口 |----|
口口口口 |----|
5
口口口口 |①---|
口口口口 |----|
口口口口 |----|
口口①口 |----|
6
口口口口 |①---|
口口口口 |----|
口口①口 |----|
口口口口 |----|
7
口口口口 |①---|
口口口口 |----|
口①口口 |----|
口口口口 |----|
8
口口口口 |①---|
口口②① |----|
口口口口 |②---|
口口口口 |----|
9
口口口口 |①---|
②①口口 |----|
口口口口 |②---|
口口口口 |----|
10
口口①口 |①---|
口口口口 |----|
口口口口 |----|
口口口口 |----|
11
口口口口 |①---|
口①口口 |----|
口口口口 |----|
口口口口 |----|
12
口口口口 |①---|
口口口口 |----|
口口①口 |----|
口口口口 |----|
13
口口口口 |①---|
口口口口 |----|
口口口口 |----|
口①口口 |----|
14
口口口口 |①---|
口口口口 |----|
口①口口 |----|
口口口口 |----|
15
口口口口 |①---|
口口口口 |----|
口口①口 |----|
口口口口 |----|
16
口口口口 |①---|
①②口口 |----|
口口口口 |②---|
口口口口 |----|
17
口口口口 |①---|
口口①② |----|
口口口口 |②---|
口口口口 |----|
18
口①①口 |①---|
口②②口 |----|
口口口口 |②---|
口口口口 |----|
19
口口口口 |①---|
口口口口 |----|
口①①口 |----|
口口口口 |----|
20
②口口① |①---|
④口口③ |②---|
口口口口 |③---|
口口口口 |④---|
21
口口口口 |①---|
口②①口 |②---|
口④③口 |③---|
口口口口 |④---|
22
②口口① |①---|
④口口③ |②---|
口口口口 |③---|
口口口口 |④---|
23
口①①口 |①---|
口口口口 |----|
口②②口 |②---|
口口口口 |----|
24
①口口② |①---|
③口口④ |②---|
口口口口 |③---|
口口口口 |④---|
25
口口口口 |①---|
口①②口 |②---|
口③④口 |③---|
口口口口 |④---|
26
口①①口 |①---|
口②②口 |----|
口口口口 |②---|
口口口口 |----|
27
口口口口 |①---|
口口口口 |----|
口①①口 |②---|
口②②口 |----|
28
口口口口 |①---|
①口口口 |----|
口②口口 |②---|
口口口口 |----|
29
口口口口 |①---|
口口②口 |----|
口口口口 |②---|
口口①口 |----|
30
口①口口 |①---|
口②口口 |----|
口口口口 |②---|
口口口口 |----|
31
口口口口 |①---|
口口口口 |----|
口①口口 |②---|
口②口口 |----|
32
口口口口 |①---|
口口口① |----|
口口②口 |②---|
口口口口 |----|
33
口口口口 |①---|
口②口口 |----|
口口口口 |②---|
口①口口 |----|
34
口口①口 |①---|
口口②口 |----|
口口口口 |②---|
口口口口 |----|
35
口口口口 |①---|
口口口口 |----|
口口①口 |②---|
口口②口 |----|
36
口口口口 |①---|
口①②口 |----|
口口口口 |②---|
口口口口 |----|
37
口口口口 |①---|
口口口口 |----|
口②①口 |②---|
口口口口 |----|
38
①口口口 |①---|
口口②口 |--②-|
③口口口 |----|
口口口口 |③---|
39
口①①口 |----|
口②②口 |①---|
口口口口 |②---|
口口口口 |----|
40
口口口① |①---|
口口口口 |----|
口②②口 |②---|
口口口口 |----|
41
①口口口 |①---|
口口口口 |----|
口②②口 |②---|
口口口口 |----|
42
口口口口 |①---|
口口口① |----|
口口口口 |②---|
口②②口 |----|
43
口口口口 |①---|
①②③④ |②---|
口口口口 |③---|
口口口口 |④---|
44
①口口口 |①---|
口口口口 |----|
口②②口 |②---|
口口口口 |----|
45
口口口① |①---|
口口口口 |----|
口②②口 |②---|
口口口口 |----|
46
口口口口 |①---|
①①口口 |----|
口口口口 |----|
口口口口 |----|
47
口口口口 |①---|
口口①① |----|
口口②② |②---|
口口口口 |----|
48
①口口② |①---|
口口口② |----|
口口口口 |②---|
口口口口 |----|
49
口口口口 |①---|
①口口② |----|
口口口② |②---|
口口口口 |----|
50
①口口② |①---|
口口口② |----|
口口口口 |②---|
口口口口 |----|
51
①口口口 |①---|
口②口口 |②---|
口口③口 |③---|
口口口④ |④---|
52
②口口口 |①---|
②口口① |----|
口口口口 |②---|
口口口口 |----|
53
口口口① |①---|
②口口口 |----|
②口口口 |②---|
口口口口 |----|
54
口①①口 |①---|
口口口口 |----|
口口口口 |----|
口口口口 |----|
55
口口口口 |①---|
口口口口 |----|
口①①口 |----|
口口口口 |----|
56
口口口口 |①---|
①口口口 |----|
口口口口 |----|
口口口口 |----|
57
口口口口 |①---|
口①口口 |----|
口口口口 |----|
口口口口 |----|
58
口口口口 |①---|
口口①口 |----|
口口口口 |----|
口口口口 |----|
59
口口口口 |①---|
口口口① |----|
口口口口 |----|
口口口口 |----|
60
口口口口 |①---|
口口口口 |----|
口口口① |----|
口口口口 |----|
61
口口口口 |①---|
口口口口 |----|
口口①口 |----|
口口口口 |----|
62
口口口口 |①---|
口口口口 |----|
口①口口 |----|
口口口口 |----|
63
口口口口 |①---|
口口口口 |----|
①口口口 |----|
口口口口 |----|
64
口②①口 |①---|
口口口口 |----|
口口口口 |②---|
口口口口 |----|
65
口口口口 |①---|
口②①口 |----|
口口口口 |②---|
口口口口 |----|
66
口口口口 |①---|
口口口口 |----|
口②①口 |②---|
口口口口 |----|
67
口口口口 |①---|
口口口口 |----|
口口口口 |②---|
口②①口 |----|
68
口口口口 |①---|
②口口① |----|
口口口口 |②---|
口口口口 |----|
69
口口口口 |①---|
口口口口 |----|
②口口① |②---|
口口口口 |----|
70
口口口口 |①---|
口②①口 |----|
口口口口 |②---|
口口口口 |----|
71
口口口口 |①---|
口口口口 |----|
口②①口 |②---|
口口口口 |----|
72
口①①口 |①---|
口口口口 |----|
口口口口 |----|
口口口口 |----|
73
口口口口 |①---|
口口口口 |----|
口①①口 |----|
口口口口 |----|
74
①口口① |①---|
②口口② |----|
口口口口 |②---|
口口口口 |----|
75
口口口口 |①---|
口口口口 |----|
①口口① |----|
口口口口 |----|
76
④③②① |①---|
口口口口 |②---|
口口口口 |③---|
口口口口 |④---|
77
口口口口 |①---|
④③②① |②---|
口口口口 |③---|
口口口口 |④---|
78
口口口口 |①---|
口口口口 |②---|
④③②① |③---|
口口口口 |④---|
79
口口口口 |①---|
口口口口 |②---|
口口口口 |③---|
④③②① |④---|
80
口口口口 |①---|
④③②① |②---|
口口口口 |③---|
口口口口 |④---|
81
口口口口 |①---|
口口口口 |②---|
④③②① |③---|
口口口口 |④---|
82
口口口口 |①---|
口②②口 |--②-|
口③③口 |--③-|
口④④① |--④-|
83
口口口口 |----|
口口口口 |--①-|
①口口① |----|
口口口口 |----|
84
①②③④ |①---|
口口口口 |②---|
口口口口 |③---|
口口口口 |④---|
85
口口口口 |①---|
①②③④ |②---|
口口口口 |③---|
口口口口 |④---|
86
口口口口 |①---|
口口口口 |②---|
①②③④ |③---|
口口口口 |④---|
87
口口口口 |①---|
口口口口 |②---|
口口口口 |③---|
①②③④ |④---|
88
口口口口 |①---|
①②③④ |②---|
口口口口 |③---|
口口口口 |④---|
89
口口口口 |①---|
口口口口 |②---|
①②③④ |③---|
口口口口 |④---|
90
口口口口 |①---|
口口②口 |--②-|
③口口口 |--③-|
①口④口 |--④-|
91
口②②口 |--①-|
①③③口 |----|
口口口口 |②---|
口口口口 |③---|
92
②口口口 |①---|
③口口口 |②---|
④①①口 |③---|
口口口口 |④---|
93
口口口① |①---|
口口②口 |②---|
口③口口 |③---|
④口口口 |④---|
94
口口口口 |----|
口口口① |①---|
口口口② |②---|
口口口③ |③---|
95
①口口口 |①---|
口②口口 |②---|
口口③口 |③---|
口口口④ |④---|
96
口口口口 |----|
①口口口 |①---|
②口口口 |②---|
③口口口 |③---|
97
口口口① |①---|
口口②口 |②---|
口③口口 |③---|
④口口口 |④---|
98
口口口口 |①---|
①①口口 |----|
口口②② |②---|
口口口口 |----|
99
口口口口 |①---|
口口①① |----|
②②口口 |②---|
口口口口 |----|
100
口口口口 |①---|
口①①口 |--②-|
③口口③ |----|
口②②口 |③---|
101
口口①口 |----|
口②口口 |①---|
口口③口 |②---|
口口口口 |③---|
102
口口口口 |①---|
口口口口 |----|
口口口口 |----|
口①口口 |----|
103
口口口口 |----|
口口口口 |----|
口①①口 |----|
口口口口 |--①-|

accuracy: 100%
最終更新:2022年05月13日 03:44