アットウィキロゴ
スノ-ホワイト
RoughSketch

ADVANCED

Level: 7
BPM: 214
Notes: 668

1
口口口口 |----|
口口口口 |----|
口口口口 |----|
口口口口 |----|
2
口口⑥口 |①---|
②⑤口口 |②-③-|
④口③口 |--④-|
口①①口 |⑤-⑥-|
3
口口口口 |----|
口口口口 |----|
口口口口 |----|
口口口口 |----|
4
①口口① |①---|
口口口口 |----|
口口口口 |----|
口口口口 |----|
5
口口口口 |①---|
口口口口 |----|
①口口① |----|
口口口口 |----|
6
口⑥口口 |①---|
口口⑤② |②-③-|
口③口④ |--④-|
口①①口 |⑤-⑥-|
7
口口口① |--①-|
口口口口 |②---|
口口②口 |----|
口口口口 |----|
8
①口口口 |①---|
口②口口 |----|
口口口口 |②---|
口口口口 |----|
9
口口口口 |①---|
口口口口 |----|
口口①口 |②---|
口口口② |----|
10
口口⑥口 |①---|
②⑤口口 |②-③-|
④口③口 |--④-|
口①①口 |⑤-⑥-|
11
口口口口 |----|
口口口口 |----|
口口口口 |----|
口口口口 |----|
12
口①口④ |①---|
口口②⑤ |②---|
口③口口 |③---|
口口口口 |④-⑤-|
13
口口①口 |①---|
口②口口 |②---|
④口③口 |③---|
口口口口 |④---|
14
口⑥口口 |①---|
口口⑤② |②-③-|
口③口④ |--④-|
口①①口 |⑤-⑥-|
15
口口口① |--①-|
③口口④ |②---|
口口②口 |③---|
口口口口 |④---|
16
①口①口 |①---|
口②口口 |②---|
③口③口 |③---|
口④口口 |④---|
17
口②口① |①-②-|
④口③口 |③-④-|
口⑥口⑤ |⑤-⑥-|
⑧口⑦口 |⑦-⑧-|
18
①口①口 |①---|
口③口③ |②---|
②口②口 |③---|
口④口④ |④---|
19
口口口口 |①---|
口口①口 |----|
②①口② |----|
口口口口 |②---|
20
③③口口 |①---|
①①口口 |②---|
④④口口 |③---|
②②口口 |④---|
21
口口①① |①---|
口口③③ |②---|
口④②② |③---|
口口⑤口 |④-⑤-|
22
③③口口 |①---|
①①口口 |②---|
④④口口 |③---|
②②口口 |④---|
23
口②②口 |①---|
①口口① |----|
口口③③ |②-③-|
口口口口 |----|
24
口口③③ |①---|
口口①① |②---|
口口④④ |③---|
口口②② |④---|
25
①①口口 |①---|
③③口口 |②---|
②②④口 |③---|
口⑤口口 |④-⑤-|
26
口口①① |①---|
口口口① |----|
②②口口 |②---|
②口口口 |----|
27
口①①口 |①---|
口②②口 |②---|
口③③口 |③---|
口④④口 |④---|
28
口③②③ |①---|
口②口口 |②---|
①口④① |③---|
口口口口 |④---|
29
③④⑤口 |①---|
口口口① |②---|
口口口口 |③-④-|
口口②口 |⑤---|
30
口口口② |①---|
口④④口 |②-③-|
①口③① |--④-|
口⑤⑤口 |--⑤-|
31
口口口口 |----|
口口口口 |----|
口口口② |①---|
口口口① |②---|
32
③②③口 |①---|
①口②① |②---|
口④口口 |③---|
口口口口 |④---|
33
口⑤④③ |①---|
①口口口 |②---|
口口口口 |③-④-|
口②口口 |⑤---|
34
口⑤⑤口 |①---|
④②②④ |②---|
③①①③ |③---|
口口口口 |④-⑤-|
35
①口口① |----|
口口口口 |----|
口口口口 |①---|
口口口口 |----|
36
口②①口 |①-②-|
口④③口 |③-④-|
口⑥⑤口 |⑤-⑥-|
口⑧⑦口 |⑦-⑧-|
37
②口口① |①-②-|
④口口③ |③-④-|
⑥口口⑤ |⑤-⑥-|
⑧口口⑦ |⑦-⑧-|
38
②口口① |①---|
③口口③ |--②-|
口②①口 |----|
口③③口 |③---|
39
口口①① |----|
口口口口 |①---|
②②口口 |②---|
③③③③ |③---|
40
口①口口 |①---|
①④③② |②-③-|
口口⑥⑤ |④---|
口口口口 |⑤-⑥-|
41
⑤口口口 |①---|
口⑤口口 |②-③-|
口①口口 |④---|
口④③② |⑤---|
42
口口①口 |①---|
口口口① |②-③-|
②③④口 |④---|
⑤⑥口口 |⑤-⑥-|
43
口②口口 |①---|
②口口口 |②---|
口④③⑤ |③-④-|
口口①口 |⑤---|
44
口口①口 |①---|
②③④① |②-③-|
⑤⑥口口 |④---|
口口口口 |⑤-⑥-|
45
口口口⑤ |①---|
口口⑤口 |②-③-|
口口①口 |④---|
②③④口 |⑤---|
46
①①口口 |①---|
⑥⑥口④ |②-③-|
口③口② |--④-|
口口⑤口 |⑤-⑥-|
47
口④口① |--①-|
口口②口 |②-③-|
⑥③⑤口 |④-⑤-|
口口口口 |⑥---|
48
口口口口 |①---|
⑤④③② |②-③-④-|
口⑧⑦⑥ |⑤---|
口①①口 |⑥-⑦-⑧-|
49
口口口⑥ |①---|
口口口口 |②-③-④-|
①口口⑥ |⑤---|
⑤④③② |⑥---|
50
口①①口 |①---|
②③④⑤ |②-③-④-|
⑥⑦⑧口 |⑤---|
口口口口 |⑥-⑦-⑧-|
51
⑥口口口 |①---|
口口口口 |②-③-④-|
⑥口口① |⑤---|
②③④⑤ |⑥---|
52
口①①口 |①---|
⑤④③② |②-③-④-|
口⑧⑦⑥ |⑤---|
口口口口 |⑥-⑦-⑧-|
53
口口口口 |①---|
口⑥⑥口 |②-③-④-|
①口口口 |⑤---|
⑤④③② |⑥---|
54
①①口口 |①---|
④口⑥⑥ |②-③-|
②口③口 |--④-|
口⑤口口 |⑤-⑥-|
55
①口④口 |--①-|
口②口口 |②-③-|
口⑤③口 |④-⑤-|
口口口口 |----|
56
口口⑥口 |①---|
②⑤口口 |②-③-|
④口③口 |--④-|
口①①口 |⑤-⑥-|
57
①②口口 |--①-|
⑤口③④ |②-③-|
口⑥口口 |④-⑤-|
口口⑦口 |⑥-⑦-|
58
口⑤①口 |①-②-|
口②⑥口 |③-④-|
口⑦③口 |--⑤-|
口④口口 |⑥-⑦-|
59
口口口口 |----|
①口口① |①---|
口口口口 |②---|
②口口② |----|
60
口口⑥口 |①---|
②⑤口口 |②-③-|
④口③口 |--④-|
口①①口 |⑤-⑥-|
61
①②口口 |--①-|
⑤口③④ |②-③-|
口⑥口口 |④-⑤-|
口口⑦口 |⑥-⑦-|
62
②口①① |①---|
口④④口 |②-③-|
③口口口 |--④-|
⑤口口⑤ |--⑤-|
63
②口口② |--①-|
口口口口 |----|
口①①口 |②---|
口口口口 |----|
64
口口⑥口 |①---|
②⑤口口 |②-③-|
④口③口 |--④-|
口①①口 |⑤-⑥-|
65
①②口口 |--①-|
⑤口③④ |②-③-|
口⑥口口 |④-⑤-|
口口⑦口 |⑥-⑦-|
66
口⑤①口 |①-②-|
口②⑥口 |③-④-|
口⑦③口 |--⑤-|
口④口口 |⑥-⑦-|
67
①口口口 |----|
①口口口 |①---|
口口口② |----|
口口口② |②---|
68
口口⑥口 |①---|
②⑤口口 |②-③-|
④口③口 |--④-|
口①①口 |⑤-⑥-|
69
①②口口 |--①-|
⑤口③④ |②-③-|
口⑥口口 |④-⑤-|
口口⑦口 |⑥-⑦-|
70
口⑤①口 |①-②-|
口②⑥口 |③-④-|
口⑦③口 |--⑤-|
口④口口 |⑥-⑦-|
71
口口口① |----|
口口口① |①---|
②口口口 |----|
②口口口 |②---|
72
口⑥口口 |①---|
口②⑤口 |②-③-|
口①①④ |--④-|
口③口口 |⑤-⑥-|
73
口口口口 |①---|
②⑥口④ |②-③-|
①①①口 |--④-|
③口⑤口 |⑤-⑥-|
74
③③①① |①---|
口口口口 |②---|
②②④④ |③---|
口口口口 |④---|
75
口口口口 |①---|
口①①口 |----|
口口口口 |----|
②②②② |②---|
76
⑥①⑥② |①---|
①④口口 |②-③-|
口⑤③口 |--④-|
口口口口 |⑤-⑥-|
77
口口口口 |--①-|
④口⑤① |②-③-|
口口口口 |④-⑤-|
⑥②⑦③ |⑥-⑦-|
78
③口①⑧ |①-②-|
⑤口⑦口 |③-④-|
④口②⑧ |⑤-⑥-|
口⑥口口 |⑦-⑧-|
79
口②①口 |--①-|
口④口③ |--②-|
口②①口 |③-④-|
口⑥口⑤ |⑤-⑥-|
80
②⑥口⑥ |①---|
口口④口 |②-③-|
口③⑤① |--④-|
口口①口 |⑤-⑥-|
81
口口口口 |--①-|
①⑤口④ |②-③-|
口口口口 |④-⑤-|
③⑦②⑥ |⑥-⑦-|
82
②④②④ |①---|
口口口口 |②-③-|
口①①① |--④-|
③⑤③⑤ |--⑤-|
83
口口口口 |--①-|
口①①口 |--②-|
②②②② |----|
口口口口 |----|
84
⑥①⑥口 |①---|
①④口② |②-③-|
口⑤口口 |--④-|
口口③口 |⑤-⑥-|
85
口口口口 |--①-|
⑤口④口 |②-③-|
口口②口 |④-⑤-|
⑦③⑥① |⑥-⑦-|
86
口③⑤① |①-②-|
口⑥口口 |③-④-|
⑦②口④ |⑤-⑥-|
口⑧口口 |⑦-⑧-|
87
口⑤口④ |--①-|
①⑦口⑥ |②-③-|
口②口口 |④-⑤-|
口口③口 |⑥-⑦-|
88
口口①口 |①-②-|
②口口口 |③--④|
④口③口 |--⑤-|
口⑦⑥⑤ |⑥-⑦-|
89
⑤①口口 |①-②-|
口口⑥② |③--④|
⑦③口④ |--⑤-|
口口口口 |⑥-⑦-|
90
⑤⑤①① |①---|
④口口④ |②-③-|
口②②口 |--④-|
口③③口 |--⑤-|
91
口口口① |--①-|
口④③口 |--②-|
②⑥⑤① |③-④-|
口②口口 |⑤-⑥-|
92
④④②② |①---|
①口口① |②---|
口口口口 |③---|
③③口口 |④---|
93
口⑧口④ |①-②-③-|
⑦口③口 |④---|
口⑥口② |⑤-⑥-⑦-|
⑤口①口 |⑧---|
94
①口③③ |①---|
口口口② |②---|
①口②口 |③---|
口口④④ |④---|
95
①口⑤口 |①-②-③-|
口②口⑥ |④---|
③口⑦口 |⑤-⑥-⑦-|
口④口⑧ |⑧---|
96
④④口口 |①---|
②口①口 |②---|
口②口口 |③---|
③③①口 |④---|
97
口⑧口④ |①-②-③-|
⑦口③口 |④---|
口⑥口② |⑤-⑥-⑦-|
⑤口①口 |⑧---|
98
口口①③ |①---|
口④口① |②---|
②口口口 |③---④-|
口②⑤口 |--⑤---|
99
①①口口 |①---|
③口⑤口 |②---|
口④②② |③-④-|
口口口口 |⑤---|
100
口①①① |①---|
口口口口 |--②-|
③③③口 |----|
口②②② |③---|
101
口①①① |--①-|
②口口② |----|
口口口口 |②---|
口③③口 |③---|
102
口口口口 |①---|
口①①口 |----|
口口口口 |----|
口口口口 |----|
103
口口口口 |----|
口口口口 |----|
口③②① |----|
口口口口 |①②③-|

accuracy: 100%
最終更新:2022年05月13日 04:03