アットウィキロゴ
スノ-ホワイト
RoughSketch

EXTREME

Level: 10.4
BPM: 214
Notes: 900

1
口口口口 |----|
口口口口 |----|
口口口口 |----|
口口口口 |----|
2
口口⑥口 |①---|
②⑤口口 |②-③-|
④口③口 |--④-|
口①①口 |⑤-⑥-|
3
口口口口 |①---|
口口口口 |----|
口①口① |----|
口口口口 |----|
4
口①口② |①---|
①口①口 |----|
口口口口 |----|
口口口口 |②---|
5
口口口口 |①---|
口②③④ |②---|
①口①口 |③---|
口①口口 |④---|
6
口口⑥⑥ |①---|
②⑤口口 |②-③-|
④口③口 |--④-|
口①①口 |⑤-⑥-|
7
②口口口 |①-②-|
口口口口 |③---|
口③口① |----|
口口口口 |----|
8
口口①① |①---|
口②②① |----|
口口②口 |②---|
口口口口 |----|
9
口口口口 |①---|
口口口口 |----|
①①口口 |②---|
②①口口 |----|
10
口口⑥口 |①---|
②⑤口口 |②-③-|
④口③口 |--④-|
口①①口 |⑤-⑥-|
11
口口口口 |①---|
⑥⑦②口 |②-③-|
④①⑤① |--④-|
口③口口 |⑤⑥⑦-|
12
口②①口 |①---|
口口口① |②---|
口③口口 |③---|
口⑥⑤④ |④⑤⑥-|
13
②口④口 |①---|
口⑤①① |②---|
③⑥口④ |③---|
口口口口 |④-⑤⑥|
14
⑥⑥口口 |①---|
②口⑤口 |②-③-|
④口③口 |--④-|
口①①口 |⑤-⑥-|
15
口口口口 |①-②-|
口④口② |③---|
口①⑤① |④-⑤-|
口⑦③⑥ |⑥-⑦-|
16
①①④② |①-②-|
①⑤⑤⑦ |③-④-|
⑥⑤口口 |⑤-⑥-|
③⑧口口 |⑦-⑧-|
17
口⑥⑦③ |①-②-|
②⑧口口 |③-④-|
口口①① |⑤-⑥-|
④口①⑤ |⑦-⑧-|
18
②⑤口④ |①---|
口⑤②④ |②---|
①①①① |③---|
③③③③ |④-⑤-|
19
口口③③ |①---|
口口口口 |----|
②①①② |②---|
口口③③ |③---|
20
①③口口 |①-②-|
⑤⑦口口 |③-④-|
⑥⑧口口 |⑤-⑥-|
②④口口 |⑦-⑧-|
21
口口③① |①-②-|
口⑨⑦⑤ |③-④-|
口口⑧⑥ |⑤-⑥-|
口口④② |⑦⑧⑨-|
22
①③口口 |①-②-|
⑤口口⑦ |③-④-|
⑥口口⑧ |⑤-⑥-|
②④口口 |⑦-⑧-|
23
③③口口 |①---|
口①①口 |②---|
口④④口 |③-④-|
②口②口 |----|
24
口口③① |①-②-|
口口⑦⑤ |③-④-|
口口⑧⑥ |⑤-⑥-|
口口④② |⑦-⑧-|
25
①③⑤口 |①-②-|
口⑤口口 |③-④-|
⑨⑧⑦⑥ |⑤---|
②④口口 |⑥⑦⑧⑨|
26
②④④⑤ |①---|
口口③① |--②-|
口口口口 |③-④-|
口口③① |--⑤-|
27
口口口口 |①---|
③①口口 |②---|
④④②② |③---|
③①口口 |④---|
28
①口口④ |①-②-|
⑥③③① |③---|
口口口④ |④---|
口⑤②口 |⑤-⑥-|
29
口口⑤口 |①---|
口④口① |②---|
③口②口 |③-④-|
口口口① |⑤---|
30
口②口① |①---|
⑤口⑤① |②-③-|
口①③④ |④-⑤-|
⑥⑥口④ |--⑥-|
31
口②口① |①---|
④②口① |②---|
③口口口 |③---|
口口口口 |④---|
32
①口④③ |①---|
口⑤①① |②---|
口口口③ |③---|
口②口口 |④-⑤-|
33
口⑦口⑥ |①---|
口口⑤② |②-③-|
口④①口 |④-⑤-|
口口①③ |⑥-⑦-|
34
⑧口①口 |①-②-|
②④口⑤ |③-④-|
⑤口⑥① |⑤-⑥-|
⑦③⑤口 |⑦-⑧-|
35
口③③口 |①---|
②口①口 |②---|
口②口① |③---|
口④④口 |④---|
36
④⑤⑥⑦ |①-②-|
③口口⑧ |③-④-|
②口口口 |⑤-⑥-|
①口口① |⑦-⑧-|
37
口⑥⑧口 |①-②-|
口口⑤口 |③-④-|
口④口① |⑤-⑥-|
口⑦③② |⑦-⑧-|
38
①⑧口⑥ |①-②③|
①④⑦② |④-⑤-|
⑤⑩③⑨ |⑥⑦⑧-|
⑤口口口 |⑨-⑩-|
39
⑧口口⑧ |①-②-|
②⑥口③ |③-④-|
⑤口⑦口 |⑤⑥⑦-|
口④口① |⑧---|
40
口①口⑤ |①---|
④口④② |②-③-|
口①⑥④ |④---|
口口③① |⑤-⑥-|
41
⑤①①⑤ |①---|
④口④② |②-③-|
口①⑥④ |④---|
口口③口 |⑤-⑥-|
42
口①①⑤ |①---|
④口④② |②-③-|
口①⑥口 |④---|
口口③④ |⑤-⑥-|
43
④①④口 |①---|
口②④② |②-③-|
口①口① |④-⑤-|
口⑥③⑤ |⑥---|
44
口②口口 |①---|
④⑥④口 |②-③-|
③①口① |④---|
⑤口④口 |⑤-⑥-|
45
⑦②⑥⑤ |①---|
④⑧④⑧ |②-③-|
③①⑦① |④⑤⑥-|
口①④口 |⑦-⑧-|
46
⑥④⑥口 |①---|
口口⑤口 |②-③-|
③口口② |--④-|
口①口口 |⑤-⑥-|
47
口口口口 |--①-|
口⑥⑥① |②-③-|
④④②口 |④-⑤-|
口③⑤⑤ |⑥---|
48
口④③② |①---|
①口口口 |②-③-④-|
⑤⑧⑦⑥ |⑤---|
①⑤口口 |⑥-⑦-⑧-|
49
①⑥⑦口 |①--|
①④③② |②-③-④-|
口⑦口⑥ |⑤---|
⑤口⑤口 |⑥-⑦-|
50
①口口① |①---|
口④③② |②-③-④-|
⑤口口口 |⑤---|
⑤⑧⑦⑥ |⑥-⑦-⑧-|
51
①①口⑥ |①---|
⑤⑦⑤⑥ |②-③-④-|
⑦④③② |⑤-⑥-|
口口口口 |⑦---|
52
②③④口 |①---|
口口口口 |②-③-④-|
⑥⑦⑧⑤ |⑤---|
口①①⑤ |⑥-⑦-⑧-|
53
⑥⑥⑧① |①---|
②③④① |②-③-④-|
⑦口口⑤ |⑤-⑥-|
口⑦⑤口 |⑦-⑧-|
54
⑥⑥口② |①---|
口③⑤口 |②-③-|
口①①④ |--④-|
口口口口 |⑤-⑥-|
55
口口口口 |--①-|
④④口① |②-③-|
口口②口 |④-⑤-|
口③⑤⑤ |----|
56
②口口① |①---|
口⑥⑤④ |②-③-|
口③口口 |--④-|
口口口口 |⑤-⑥-|
57
口③口① |--①-|
④口⑦口 |②-③-|
口⑤口② |④-⑤-|
口口⑥口 |⑥-⑦-|
58
口口⑤口 |①-②-|
⑥②口④ |③-④-|
①口③口 |--⑤-|
口⑦口口 |⑥-⑦-|
59
口①口① |----|
口口口口 |①---|
口②口② |②---|
口口口口 |----|
60
①口口② |①---|
④⑤⑥口 |②-③-|
口口③口 |--④-|
口口口口 |⑤-⑥-|
61
①口③口 |--①-|
口⑦口④ |②-③-|
②口⑤口 |④-⑤-|
口⑥口口 |⑥-⑦-|
62
④②④① |①---|
口口口口 |②-③-|
③⑤口⑤ |--④-|
口口口口 |--⑤-|
63
口口口口 |--①-|
口①①口 |----|
口口口口 |②---|
②口口② |----|
64
②口②① |①---|
口⑥⑤④ |②-③-|
口③口口 |--④-|
口口⑤口 |⑤-⑥-|
65
口③口① |--①-|
④口⑦口 |②-③-|
口⑤②② |④-⑤-|
⑥口⑥口 |⑥-⑦-|
66
⑥口⑤口 |①-②-|
⑥②口④ |③-④-|
①口③③ |--⑤-|
口⑦口口 |⑥-⑦-|
67
口口口口 |----|
口②①口 |①---|
口②①口 |----|
口口口口 |②---|
68
①②口② |①---|
④⑤⑥口 |②-③-|
口口③口 |--④-|
口⑤口口 |⑤-⑥-|
69
①口③口 |--①-|
口⑦口④ |②-③-|
②②⑤口 |④-⑤-|
口⑥口⑥ |⑥-⑦-|
70
②②⑥① |①---|
口口口⑤ |②-③-|
③口④口 |--④-|
口⑤口口 |⑤-⑥-|
71
口口口② |----|
①口②口 |①---|
口①口口 |----|
口口口口 |②---|
72
①①①口 |①---|
口口口④ |②-③-|
⑥口口② |--④-|
口③⑤口 |⑤-⑥-|
73
②④口⑥ |①---|
①①①口 |②-③-|
口③口⑤ |--④-|
口口口口 |⑤-⑥-|
74
口口③口 |①---|
④口③③ |②---|
①⑤口口 |③---|
①①口② |④-⑤-|
75
⑧口⑧口 |①②③④|
⑧⑤⑧⑦ |⑤-⑥-|
口口⑥口 |⑦---|
①②③④ |⑧---|
76
口②⑦① |①---|
口⑦口⑤ |②-③-|
①⑥③① |④-⑤-|
②④⑥口 |⑥-⑦-|
77
口⑤⑦④ |①-②-|
口口②⑥ |③---|
①⑥⑦口 |④-⑤-|
③④口③ |⑥-⑦-|
78
②⑥口⑧ |①-②-|
①④③⑦ |③-④-|
③口口⑤ |⑤-⑥-|
⑤⑦①⑧ |⑦-⑧-|
79
⑧口②口 |①-②-|
⑨⑥④⑦ |③-④-|
③①④口 |⑤-⑥-|
⑤口②口 |⑦-⑧⑨|
80
⑦①⑦口 |①---|
口⑤③口 |②-③-|
②口⑥① |④-⑤-|
⑥口④② |⑥-⑦-|
81
口⑧口口 |①-②-|
②口⑦口 |③-④-|
④⑥口① |⑤-⑥-|
口③⑤③ |⑦-⑧-|
82
③⑤⑤④ |①---|
口②口① |②-③-|
口口①② |--④-|
③⑤⑤④ |--⑤-|
83
④口⑤③ |--①-|
②⑥口② |--②-|
口①①口 |--③-|
口口口口 |④-⑤⑥|
84
⑦②口口 |①---|
⑦口⑤口 |②-③-|
①③⑥① |④-⑤-|
口⑥④② |⑥-⑦-|
85
口③②④ |①-②-|
口⑧⑨口 |③-④-|
⑥口⑦① |⑤-⑥-|
⑤⑦⑤③ |⑦-⑧⑨|
86
①⑤③⑥ |①-②-|
④口口① |③-④-|
⑦②口③ |⑤-⑥-|
口⑧⑦⑤ |⑦-⑧-|
87
口口口口 |①-②③|
口口口① |④-⑤-|
口②③④
⑤口口口

⑥⑦⑧⑨
⑩⑪⑫⑬
口口口口 |⑥⑦⑧⑨|
口口口口 |⑩⑪⑫⑬|
88
口⑤口⑦ |①-②-|
口⑧⑦口 |③--④|
①③⑥④ |--⑤-|
口口②④ |⑥-⑦⑧|
89
④⑥口口 |①-②-|
①口⑦② |③--④|
口③⑧⑤ |--⑤-|
口③口口 |⑥-⑦⑧|
90
④口②④ |①---|
③口⑤② |②-③-|
口③口口 |--④-|
①⑤①⑤ |--⑤-|
91
口①口⑥ |--①-|
口③口② |--②-|
①口①② |③-④-|
④口⑤口 |⑤-⑥-|
92
①口③口 |①---|
①⑤⑤口 |②-③-④-|
口②口④ |⑤---|
口⑥⑥口 |⑥---|
93
①⑥⑤④ |①-②-③-|
②⑦⑩⑨ |④-⑤-⑥-|
③④①⑧ |⑦-⑧-⑨-|
⑩⑪⑫⑦ |⑩-⑪-⑫-|
94
①③口口 |①---|
③口口口 |②---|
②②①口 |③---|
④口口④ |④---|
95
口口③① |①-②-③-|
口⑥④② |④-⑤-⑥-|
⑨⑦⑤⑩ |⑦-⑧-⑨-|
口⑧口⑩ |⑩---|
96
口口②口 |①---|
①③③② |②---|
口口口口 |③---|
①④④口 |④---|
97
①⑥⑤④ |①-②-③-|
②⑦⑩⑨ |④-⑤-⑥-|
③④①⑧ |⑦-⑧-⑨-|
⑩⑪⑫⑦ |⑩-⑪-⑫-|
98
①⑤⑤④ |①②③-|
②口⑦口 |④---|
③⑥④⑥ |⑤---⑥-|
口⑦口口 |--⑦---|
99
①⑥⑧⑥ |①②③④|
②⑤口⑤ |⑤---|
③⑧⑦⑨ |⑥-⑦-|
④口口口 |⑧-⑨-|
100
③⑧口⑤ |①-②-|
④口①⑦ |③-④-|
⑥口口口 |⑤-⑥-|
④②①⑦ |⑦-⑧-|
101
⑤口口⑤ |①-②-|
口②口口 |③-④-|
口④口③ |⑤---|
⑥②①⑥ |⑥---|
102
口①①口 |①---|
①口口① |----|
口口口口 |----|
口口口口 |----|
103
口口口口 |----|
口①①口 |----|
口②②口 |----|
口③③口 |①②③-|

accuracy: 100%
最終更新:2022年05月13日 04:44