Queen's Paradise [ 2 ]
Nanako
EXTREME
Level: 9.2
BPM: 157
Notes(
hold): 693(82)
 
1
口口口口 |----|
口口口口 |----|
口口口口 |----|
口口口口 |----|
2
①②①② |①---|
口①②口 |----|
口口口口 |②---|
口口口口 |----|
3
口口口口 |①---|
口口口口 |----|
①口①口 |②---|
③①口② |③---|
4
口口①口 |①---|
口②口① |----|
口口②口 |②---|
口口口口 |----|
5
口口口口 |①---|
口口口口 |----|
①口口口 |----|
口①口口 |----|
6
①②①② |①---|
口①②口 |----|
口口口口 |②---|
口口口口 |----|
7
口口口口 |①---|
口口口口 |----|
①口①口 |②---|
③①口② |③---|
8
①②③① |①---|
②∨|③ |--②-|
③|∧② |③---|
口③②口 |④---|
口口④口
口口口口
口口口口
口④口口
9
①口口② |①--②|
③口⑧③ |--③-|
③⑦⑥③ |④⑤⑥⑦|
②⑤④① |⑧---|
10
①<①< |①---|
口①―< |--②-|
口口口口 |③---|
口口口口 |--④-|
②口②口
口②口口
口口口口
口口口口
口∨口口
③|③口
|③|口
∧口∧口
口口口口
④口④口
口④口口
口④口口
11
口①口① |①---|
口口口口 |----|
口口①口 |②---|
口口①口 |③---|
②――<
口口口口
②――<
②――<
③口口口
③口口口
③口口口
③口口口
12
口①口口 |①---|
口①①口 |--②-|
口口①① |③---|
③口口② |--④-|
口④口口
口④口口
口④口口
口口口口
13
口口口② |①--②|
④口口③ |③-④-|
口口口口 |⑤---|
⑤①①口 |⑥---|
口口口口
口口⑥口
⑥口口⑥
口⑥口口
14
①<①< |①---|
口口口口 |--②-|
口口口口 |③---|
口口口口 |--④-|
②口②口
口②口口
口口口口
口口口口
口∨口口
③|③口
|③|口
∧口∧口
口口口口
④口④口
口④口口
口④口口
15
②①口① |①---|
口口口口 |----|
口口①口 |②---|
②③①③ |③---|
16
①①< |①---|
①①< |--②-|
①口口 |③---|
口口口口 |----|
口②②口
口②②口
口②③<
③>③
17
口口口口 |----|
口②口口 |----|
②口①② |①---|
口①②① |②---|
18
①口②口 |--①-|
口口④③ |②--③|
⑥口口口 |④-⑤-|
口口⑤口 |⑥-⑦-|
⑦口口口
口口口口
口口口口
口口口口
19
口②口① |--①-|
③④口口 |②--③|
⑥口⑦口 |④-⑤-|
口⑤口口 |⑥-⑦-|
20
①口②② |①---|
②④①① |②---|
口口口③ |③---|
③③④口 |--④-|
21
①口口③ |①---|
口口②口 |②-③-|
①①③③ |----|
④②口④ |④---|
22
口口⑦① |--①-|
③④口口 |②--③|
口口⑥② |④-⑤-|
口⑤口口 |⑥-⑦-|
23
①口口口 |--①-|
口口④③ |②--③|
②⑥口⑦ |④-⑤-|
口口⑤口 |⑥-⑦-|
24
①②口② |①---|
③口口口 |②---|
口口①口 |③---|
口④③④ |④---|
25
①口口③ |①---|
口③①口 |②---|
口①③口 |③---|
②口②口 |④---|
口口口口
口口④口
口口口口
口④口④
26
①口口口 |①---|
口口口口 |--②-|
①――< |③---|
口口口口 |--④-|
口口口②
――③
②口口口
口口口口
口口口口
口口口④
口④口口
口口口口
27
②口口③ |①--②|
口④⑤口 |--③-|
口⑤④口 |--④-|
③①口② |⑤---|
28
口口口口 |①---|
――① |--②-|
口口口口 |③---|
口口口① |④-⑤-|
口口口口
口口口②
②③―<
口口口口
口口口口
口⑤④口
口④口口
口口口口
29
②口口③ |①--②|
口④⑤口 |--③-|
口⑤④口 |--④-|
③①①② |⑤---|
30
①口口口 |①---|
口口口口 |--②-|
①――< |③---|
口口口口 |--④-|
口口②口
――③
②口口口
口口口口
口口口口
口口口④
口④口口
口口口口
31
③口口② |①--②|
口⑤④口 |--③-|
⑥④⑤口 |--④-|
②口①③ |⑤-⑥-|
32
口口口口 |①---|
①――< |--②-|
口口口口 |③---|
①口口口 |--④-|
口口口口
②口口口
――③
口口口②
④口口口
口口口口
口口口④
口口口口
33
口①口口 |①-②-|
④②③④ |③---|
⑤③②⑤ |④⑤-⑥|
⑧⑨⑦⑥ |⑦-⑧⑨|
34
口③口② |①-②-|
④⑤口口 |③--④|
口①①⑦ |⑤-⑥-|
口⑥口口 |⑦-⑧-|
口口口⑧
口口口口
口口口口
口口口口
35
①口②口 |--①-|
口口④③ |②--③|
口⑦口⑥ |④-⑤-|
口口⑤口 |⑥-⑦-|
36
②②口① |①---|
①①④② |②---|
③口口口 |③---|
口④③③ |--④-|
37
③口口① |①---|
口②口口 |②-③-|
③③①① |----|
④口②④ |④---|
38
①⑦口口 |--①-|
口口④③ |②--③|
②⑥口口 |④-⑤-|
口口⑤口 |⑥-⑦-|
39
口口口① |--①-|
③④口口 |②--③|
⑦口⑥② |④-⑤-|
口⑤口口 |⑥-⑦-|
40
②口②① |①---|
口口口③ |②---|
口①口口 |③---|
④③④口 |④---|
41
③口口① |①---|
口①③口 |②---|
口③①口 |③---|
口②口② |④---|
口口口口
口④口口
口口口口
④口④口
42
口口口① |①---|
口口口口 |--②-|
――① |③---|
口口口口 |--④-|
②口口口
③――<
口口口②
口口口口
口口口口
④口口口
口口④口
口口口口
43
③口口② |①--②|
口⑤④口 |--③-|
口④⑤口 |--④-|
②口①③ |⑤---|
44
口口口口 |①---|
①――< |--②-|
口口口口 |③---|
①口口口 |④-⑤-|
口口口口
②口口口
―③②
口口口口
口口口口
口④⑤口
口口④口
口口口口
45
③口口② |①--②|
口⑤④口 |--③-|
口④⑤口 |--④-|
②①①③ |⑤---|
46
口口口① |①---|
口口口口 |--②-|
――① |③---|
口口口口 |--④-|
口②口口
③――<
口口口②
口口口口
口口口口
④口口口
口口④口
口口口口
47
②口口③ |①--②|
口④⑤口 |--③-|
口⑤④⑥ |--④-|
③①口② |⑤-⑥-|
48
口口口口 |①---|
――① |--②-|
口口口口 |③---|
口口口① |④-⑤-|
口口口口
口口口②
③――<
②口口口
口⑤⑤口
口④④口
④口口口
口口口口
49
口口口口 |----|
③口③口 |①---|
口②口② |②---|
①口①口 |③---|
50
口①①① |①---|
口③口③ |--②-|
②口②口 |③---|
口④④口 |--④-|
51
②口⑥口 |①-②-|
③⑤①④ |③-④-|
③②⑥④ |--⑤-|
口⑤口① |⑥-⑦-|
口口口口
口口⑦口
口口口口
口口⑦口
52
④①口口 |①---|
②口④③ |--②-|
③①④② |③---|
口口口口 |④-⑤-|
口口口⑤
口⑤口口
口⑤口口
口口口口
53
口口口口 |----|
口③口③ |①---|
②口②口 |②---|
口①口① |③---|
54
①①①口 |①---|
③口③口 |--②-|
口②口② |③---|
口④④口 |--④-|
55
口⑤口② |①-②-|
④①⑥③ |③-④-|
④⑦②③ |--⑤-|
①口口口 |⑥-⑦-|
56
口口口口 |①---|
口口口口 |②---|
口口口口 |③---|
①①< |④---|
――③
口口口口
――③
口②②口
口口口④
口口口口
口口口④
口口口口
57
①口口口 |①---②-|
∧⑤④③ |--③-④-|
①口⑧⑦ |⑤---⑥-|
∧⑥②口 |--⑦-⑧-|
58
①口口口 |①---②|
③口口② |--③-|
①①口口 |④⑤⑥⑦|
②口口③ |⑧---|
口口口口
口口⑧口
口⑦⑥口
口⑤④口
59
①<①< |①---|
口①―< |--②-|
口口口口 |③---|
口口口口 |--④-|
②口②口
口②口口
口口口口
口口口口
口∨口口
③|③口
|③|口
∧口∧口
口口口口
④口④口
口④口口
口④口口
60
口①口① |①---|
口口口口 |----|
口口①口 |②---|
口口①口 |③---|
②――<
口口口口
②――<
②――<
③口口口
③口口口
③口口口
③口口口
61
④④④口 |①---|
口口口① |--②-|
口口①口 |③---|
③口①② |--④-|
62
口口口② |①--②|
④①⑥③ |③-④-|
⑥①口⑥ |⑤---|
⑤⑥口口 |⑥---|
63
①<①< |①---|
口口口口 |--②-|
口口口口 |③---|
口口口口 |--④-|
②口②口
口②口口
口口口口
口口口口
口∨口口
③|③口
|③|口
∧口∧口
口口口口
④口④口
口④口口
口④口口
64
②①口① |①---|
口口口口 |----|
口口①口 |②---|
②③①③ |③---|
65
口①①口 |①---|
口①①口 |----|
口①口口 |②---|
口口口口 |----|
口口口∨
口口口②
口>―②
口>―②
口口口口
口口口口
―②口
―②口
66
②口口② |----|
口③口① |----|
③口①① |①---|
口口①① |②-③-|
67
④口口口 |①---|
①④口口 |②-③-|
口①③② |--④-|
口口②③ |--⑤-|
口口口口
口口⑤⑤
口⑤口口
口口口口
68
③①②④ |--①-|
⑤口口口 |②-③-|
口口口⑤ |④---|
④②①③ |--⑤-|
69
口口口口 |①---|
口①③② |②-③-|
②③①口 |--④-|
④口口④ |--⑤-|
口口口口
⑤⑤口口
口口⑤口
口口口口
70
④②①③ |--①-|
口口口口 |②-③-|
口⑤口口 |④---|
③①②④ |--⑤-|
71
口④口④ |①---|
③①口口 |②-③-|
①口①② |--④-|
口①口口 |--⑤-|
口口口口
口口口口
口口口口
口⑤口⑤
72
②③②③ |①---|
口①口① |②---|
③②③② |③----④|
①口①口 |⑤---|
口口口口
口口口口
口口口口
口⑤④口
73
①<①< |①---|
口口口口 |--②-|
口口口口 |③---|
口口口口 |--④-|
②口②口
口②口口
口口口口
口口口口
口∨口口
③|③口
|③|口
∧口∧口
口口口口
④口④口
口④口口
口④口口
74
②①口① |①---|
口口口口 |----|
口口①口 |②---|
②③①③ |③---|
75
①①< |①---|
①①< |--②-|
①口口 |③---|
口口口口 |④-⑤-|
口②②口
口②②口
口②③<
③>③
⑤><⑤
⑤><⑤
口口④口
口④口④
76
①口口① |----|
①口口① |----|
口口口口 |①---|
口口口口 |----|
最終更新:2019年11月08日 03:44