アットウィキロゴ
I'm so Happy [ 2 ]
Ryu☆

EXTREME

Level: 10.1
BPM: 181
Notes(hold): 771(39)

1
口口口口 |----|
口口口口 |----|
口口口口 |----|
口口口口 |----|
2
②②口① |----|
口②口① |①---|
②口口① |----|
②②口① |②---|
3
⑪⑪①⑤ |①②③④|
⑨口②⑥ |⑤⑥⑦⑧|
口⑩③⑦ |⑨-⑩-|
⑪⑪④⑧ |⑪---|
4
口口口③ |①-②-|
口⑥①⑤ |③-④-|
⑧口口④ |⑤--⑥|
口⑦②口 |-⑦⑧-|
5
⑥⑦口⑧ |①②-③|
口口口口 |-④⑤-|
⑨⑩⑤④ |⑥⑦-⑧|
③口②① |-⑨⑩-|
6
口口③口 |①-②-|
⑥①⑤口 |③-④-|
口⑧④口 |⑤--⑥|
口②⑦口 |-⑦⑧-|
7
②②口① |①---|
⑤②④① |②---|
②⑦③① |③④-⑤|
②②⑥① |-⑥⑦-|
8
③⑤⑤① |①-②-|
口口口口 |③-④-|
口⑥⑥⑦ |⑤--⑥|
④口⑧② |-⑦⑧-|
9
④口口⑥ |①②-③|
口⑤⑦③ |-④⑤-|
①口⑩口 |⑥⑦-⑧|
⑧②口⑨ |-⑨⑩-|
10
口①③口 |①-②-|
口口口口 |③-④-|
口口口口 |⑤--⑥|
口②④口 |-⑦⑧-|

⑤⑧口⑤
口口⑦口
⑥口口⑥
口口口口
11
⑧口⑦⑥ |①②-③|
口②⑩⑨ |-④⑤-|
口口①口 |⑥⑦-⑧|
④⑤口③ |-⑨⑩-|
12
口①④口 |①---|
①②口口 |②---|
口口①② |--③-|
口⑤②③ |④-⑤-|
13
①②口② |①---|
①②②② |--②-|
①②口② |--③-|
口口口口 |----|

>━③口
口口口口
>━③口
口口口口
14
③口②口 |①---|
①口口口 |----|
口口②口 |--②-|
②④口口 |③-④-|
15
口口口口 |①---|
③①口口 |②-③-|
①③口② |--④-|
口口②口 |----|

>━④口
口>━④
口口口口
口口口口
16
口口②口 |--①-|
口口口② |②---|
口口口口 |----|
口①②口 |----|
17
①②口② |①---|
①②②② |--②-|
①②口② |--③-|
口口口口 |----|

>━③口
口口口口
>━③口
口口口口
18
口口①口 |①-②-|
口口口口 |----|
口口①口 |----|
口①②口 |----|
19
③口口口 |①---|
口①②口 |②---|
口②①口 |----|
口口口③ |③---|
20
口>②① |①---|
口口>② |②---|
口口口口 |--③-|
①口口口 |④-⑤-|

口口⑤口
口口口⑤
口③④口
口⑤口口
21
②口口口 |①---|
口口口口 |②---|
口口口口 |③④⑤-|
①口①口 |⑥-⑦-|

口>━⑥
⑤④③口
口>━⑥
口口⑦口
22
②口口③ |①---|
口③④口 |②---|
口⑤⑥③ |③④⑤⑥|
①⑦口口 |⑦---|
23
②口口⑤ |①---|
⑤④③∧ |②---|
口口口⑤ |③④⑤-|
①口⑥∧ |--⑥-|
24
②口口② |①---|
口③④口 |②---|
口⑤⑥② |③④⑤⑥|
①⑦口口 |⑦---|
25
②①①④ |①-②-|
③④>⑥ |③-④-|
⑥⑤口④ |⑤-⑥-|
⑦⑧>⑥ |⑦-⑧-|
26
②①口口 |①-②-|
③④口③ |③-④-|
⑥⑤口口 |⑤-⑥-|
⑦⑧口③ |⑦-⑧-|
27
①口口① |①---|
②口口② |②---|
┃口口┃ |----|
∧口口∧ |③---|

口口口口
③口口③
口③③口
口口口口
28
②口口③ |①---|
④②②口 |②---|
口┃┃口 |③---|
①∧∧① |④---|
29
口④口④ |①-②-|
口①①① |③---|
口④口④ |④---|
③②②③ |----|
30
②⑥①⑧ |①--②|
②⑥①⑧ |③-④-|
⑤⑦④⑤ |⑤--⑥|
③①④⑤ |⑦-⑧-|
31
②⑥①口 |①--②|
②⑦①口 |③-④-|
口⑧⑤④ |⑤-⑥-|
③①⑤④ |⑦-⑧-|
32
②⑥①⑧ |①--②|
②⑥①⑧ |③-④-|
⑤⑦④⑤ |⑤--⑥|
③①④⑤ |⑦-⑧-|
33
②⑥①口 |①--②|
②⑧①口 |③-④-|
口⑦⑤④ |⑤-⑥-|
③①⑤④ |⑦-⑧-|
34
②⑥①⑧ |①--②|
②⑥①⑧ |③-④-|
⑤⑦④⑤ |⑤--⑥|
③①④⑤ |⑦-⑧-|
35
②⑥①口 |①--②|
②⑦①口 |③-④-|
⑤⑧⑤④ |⑤-⑥-|
③①⑤④ |⑦-⑧-|
36
②⑥①⑧ |①--②|
②⑥①⑧ |③-④-|
⑤⑦④⑤ |⑤--⑥|
③①④⑤ |⑦-⑧-|
37
②⑥①口 |①--②|
②⑦①口 |③-④-|
⑤⑧⑤④ |⑤-⑥-|
③①⑤④ |⑦-⑧-|
38
①口口④ |①--②|
口口口口 |③-④-|
口口口口 |⑤--⑥|
②①④③ |⑦-⑧-|

>⑦⑧口
⑤口口口
⑦<⑥口
口口口口
39
口⑥口口 |①--②|
口②⑥口 |--③-|
⑥⑦⑤① |④-⑤-|
口③口④ |⑥-⑦-|
40
①口口④ |①--②|
口口口口 |③-④-|
口口口口 |⑤-⑥-|
①③②④ |----|

>━⑥口
⑥━<口
口口⑤口
口口口口
41
①口①口 |①---|
①口①口 |②---|
②口口② |③-④-|
∧口口∧ |⑤-⑥-|

口口口口
口⑤⑥口
⑤④③⑤
口口口口
42
④口口① |①--②|
口口口口 |③-④-|
口口口口 |⑤--⑥|
③④①② |⑦-⑧-|

口⑧⑦<
口口口⑤
口⑥>⑦
口口口口
43
口口⑥口 |①--②|
口⑥②口 |--③-|
①⑤⑦⑥ |④-⑤-|
④口③口 |⑥-⑦-|
44
①∨口∨ |①---|
口┃口┃ |②---|
①┃口┃ |----|
口②口② |③---|

口口口口
口口口口
口口口口
③③③③
45
口∨∨口 |①---|
②②②② |②---|
①①①① |③---|
口口口口 |④---|

③口口④
口④④口
口口口口
口口口口
46
口口④⑧ |①-②-|
③⑦口口 |③-④-|
口口②⑥ |⑤-⑥-|
①⑤口口 |⑦-⑧-|
47
⑦口④⑦ |①-②-|
③口⑧口 |③-④-|
口口②⑥ |⑤-⑥-|
①⑤口口 |⑦-⑧-|
48
口口④⑧ |①-②-|
③⑦⑦口 |③-④-|
口口②⑥ |⑤-⑥-|
①⑤口① |⑦-⑧-|
49
⑦口④⑦ |①-②-|
③⑦⑦口 |③-④-|
口口②⑥ |⑤-⑥-|
①⑤口① |⑦---|
50
⑩口⑦⑪ |①②③④|
⑥⑬⑬① |⑤⑥⑦⑧|
⑧②⑤⑨ |⑨⑩⑪⑫|
④⑫口③ |⑬---|
51
⑩口⑦⑪ |①②③④|
⑥⑬⑬① |⑤⑥⑦⑧|
⑧②⑤⑨ |⑨⑩⑪⑫|
④⑫口③ |⑬---|
52
⑧口⑤口 |①②③④|
④口口③ |⑤⑥⑦⑧|
⑥②⑦口 |⑨⑩⑪⑫|
口口口① |⑬⑭⑮⑯|

口⑫口⑪
口口口口
口⑯口⑨
⑭⑩⑬⑮
53
口口②③ |①---|
口①①③ |②---|
口口②③ |③---|
④④④④ |④---|
54
①②口口 |①---|
①②口口 |--②-|
①②口② |--③-|
口口口口 |----|

>━━②
口口②②
口口┃┃
口口∧∧

>━③口
口口口口
>━③口
口口口口
55
口口①① |----|
口口①① |----|
口口①口 |----|
口口口口 |①---|
56
⑦⑤口口 |①-②-|
⑤③⑥口 |③-④-|
③①⑦④ |⑤-⑥-|
①⑧口② |⑦-⑧-|
57
⑦⑤口口 |①-②-|
⑤③⑥口 |③-④-|
③①⑦④ |⑤-⑥-|
①口口② |⑦---|
58
⑦口⑤口 |①-②-|
⑤③口⑥ |③-④-|
③①⑦④ |⑤-⑥-|
①⑧口② |⑦-⑧-|
59
⑦口④⑤ |①-②-|
⑤③②⑥ |③-④-|
③①⑦口 |⑤-⑥-|
①口⑧口 |⑦-⑧-|
60
⑦⑤口口 |①-②-|
⑤③⑥口 |③-④-|
③①⑦④ |⑤-⑥-|
①⑧口② |⑦-⑧-|
61
⑦⑤口口 |①-②-|
⑤③⑥口 |③-④-|
③①⑦④ |⑤-⑥-|
①口口② |⑦---|
62
⑦口⑧⑦ |①-②-|
⑤③⑤⑥ |③-④-|
③①口④ |⑤-⑥-|
①口口② |⑦-⑧-|
63
口口口口 |①-②-|
⑥③⑥口 |③-④-|
③⑥④⑥ |⑤---|
①口②⑤ |⑥---|
64
⑦⑤③① |①-②-|
口②⑥口 |③-④-|
口⑧④口 |⑤-⑥-|
①③⑤⑦ |⑦-⑧-|
65
口⑤⑦⑦ |①-②-|
①②口③ |③-④-|
③口④① |⑤-⑥-|
⑦⑦⑥口 |⑦---|
66
①口口⑦ |①-②-|
③②⑥⑤ |③-④-|
⑤⑧④③ |⑤-⑥-|
⑦口口① |⑦-⑧-|
67
口③①口 |①-②-|
④口口口 |③-④-|
口口口② |⑤-⑥-|
口①③口 |⑦-⑧-|

⑤口口口
口⑥口⑤
⑦口口口
口⑧口⑦
68
⑩⑧⑤① |①②③④|
⑥⑬⑬⑨ |⑤⑥⑦⑧|
⑫②⑪③ |⑨⑩⑪⑫|
④口⑦口 |⑬---|
69
⑩⑧⑤① |①②③④|
⑥⑬⑬⑨ |⑤⑥⑦⑧|
⑫②⑪③ |⑨⑩⑪⑫|
④口⑦口 |⑬---|
70
口⑧⑤① |①②③④|
⑥口口口 |⑤⑥⑦⑧|
口②口③ |⑨⑩⑪⑫|
④口⑦口 |⑬⑭⑮⑯|

⑩口口⑮
口口⑬⑨
⑫⑯⑪口
口⑭口口
71
③②②口 |①---|
口③口③ |②---|
③口③口 |③---|
①④④① |④---|
72
∨口口① |①---|
┃∨①┃ |----|
┃①∧┃ |----|
①口口∧ |----|
73
口口口口 |----|
口口口口 |----|
口口口口 |----|
口口口口 |----|
74
口口口口 |----|
口口口口 |----|
口口口口 |----|
口口口口 |----|
75
口口口① |①---|
口口①口 |----|
口①口口 |----|
①口口口 |----|
最終更新:2020年11月28日 16:50