アットウィキロゴ
MODEL FT2 Miracle Version
Mutsuhiko Izumi

BASIC

Level: 6
BPM: 155
Notes: 412

1
口口口口 |----|
口口口口 |----|
口口口口 |----|
口口口口 |----|
2
口口口口 |①-②-|
口口口口 |③-④-|
①②③④ |⑤-⑥-|
⑤⑥⑦⑧ |⑦-⑧-|
3
口口口口 |①-②-|
口口口口 |③-④-|
①②③④ |⑤-⑥-|
⑤⑥⑦⑧ |⑦-⑧-|
4
口口口口 |①-②-|
口口口口 |③-④-|
①②③④ |⑤-⑥-|
⑤⑥⑦⑧ |⑦-⑧-|
5
②②①① |①---|
口口口口 |----|
口口口口 |②---|
口③③口 |③---|
6
口口①① |①-②-|
③⑦口口 |③-④-|
口②③④ |⑤-⑥-|
⑤⑥⑦⑧ |⑦-⑧-|
7
口口口口 |①-②-|
③⑦口口 |③-④-|
①②③④ |⑤-⑥-|
⑤⑥⑦⑧ |⑦-⑧-|
8
口口口口 |①-②-|
③⑦口口 |③-④-|
①②③④ |⑤-⑥-|
⑤⑥⑦⑧ |⑦-⑧-|
9
口口口口 |①---|
②②③③ |----|
口①①口 |②-③-|
口口口口 |----|
10
口口①① |①---|
口口口口 |②---|
口口口口 |----|
②口口③ |③---|
11
口口口口 |----|
口口口口 |①---|
口口口口 |----|
口①②口 |②---|
12
口口口口 |----|
口口口口 |①---|
口口口口 |----|
①口口② |②---|
13
③③口口 |----|
②②口口 |①---|
口口口口 |②---|
口①口口 |③---|
14
口③①① |①---|
口口口口 |②---|
口口口口 |③---|
②口口④ |④---|
15
③口口① |①---|
口口口口 |②---|
口口口口 |③---|
口②④口 |④---|
16
口③①口 |①---|
口口口口 |②---|
口口口口 |③---|
②口口④ |④---|
17
④④口① |①---|
③③口口 |②---|
口口口口 |③---|
口②口口 |④---|
18
③③①① |①---|
口口口口 |②---|
口口口口 |③---|
②口口④ |④---|
19
⑥口口③ |①②-③|
口⑤②口 |--④⑤|
口④①口 |-⑥--|
口⑦⑦口 |⑦---|
20
③③①① |①---|
口口口口 |②---|
口口口口 |③---|
②口口④ |④---|
21
⑥口口③ |①②-③|
口⑤②口 |--④⑤|
口④①口 |-⑥--|
口⑦⑦口 |⑦---|
22
口口口口 |①---|
①口口① |②---|
③③④④ |③-④-|
②口口② |----|
23
②②③③ |①---|
①①口口 |②---|
口口口口 |③---|
口口口口 |----|
24
⑥⑥⑤⑤ |①②--|
口④③口 |--③④|
口口口口 |----|
口②①口 |⑤-⑥-|
25
口口口口 |①-②-|
口口口口 |③-④-|
⑥⑤①② |⑤-⑥-|
⑦⑧③④ |⑦-⑧-|
26
口⑦⑥⑤ |①②-③|
口④②口 |④-⑤⑥|
口③①口 |⑦---|
口口口口 |----|
27
③口口口 |①---|
口口口口 |②---|
口②②口 |③---|
口④④① |④---|
28
口口口① |①---|
口口口口 |②---|
口②②口 |③---|
③④④口 |④---|
29
③口口口 |①---|
口口口口 |②---|
口②②口 |③---|
口④④① |④---|
30
③④④③ |①---|
口②②口 |②---|
口①①口 |③---|
口口口口 |④---|
31
③口口口 |①---|
口口口口 |②---|
口②②口 |③---|
口④④① |④---|
32
口口口① |①---|
口口口口 |②---|
口②②口 |③---|
③④④口 |④---|
33
③口口口 |①---|
口口口口 |②---|
口②②口 |③---|
口④④① |④---|
34
口③③口 |①---|
②口口② |②---|
口①①口 |③---|
④口口④ |④---|
35
口口口口 |①-②-|
口口①口 |③---|
口口②口 |----|
口③④口 |④---|
36
①口口① |①---|
②口口② |②---|
③口口③ |③---|
④口口④ |④---|
37
口口口口 |①-②-|
口①口口 |③---|
口②口口 |----|
口④③口 |④---|
38
①口口① |①---|
②口口② |②---|
③口口③ |③---|
④口口④ |④---|
39
口口口口 |①-②-|
③②口① |③-④-|
⑥⑤口④ |⑤-⑥-|
口⑧⑦口 |⑦-⑧-|
40
①口口① |①---|
②口口② |②---|
③口口③ |③---|
④口口④ |④---|
41
口口口口 |①-②-|
③②口① |③-④-|
⑥⑤口④ |⑤-⑥-|
口⑧⑦口 |⑦-⑧-|
42
①口口① |①---|
②口口② |②---|
③口口③ |③---|
④口口④ |④---|
43
口口口口 |①-②-|
③②口① |③-④-|
⑥⑤口④ |⑤-⑥-|
口⑧⑦口 |⑦-⑧-|
44
①口口① |①---|
②口口② |②---|
③口口③ |③---|
④口口④ |④---|
45
②①①② |①-②-|
④③③④ |③-④-|
⑥⑤⑤⑥ |⑤-⑥-|
⑧⑦⑦⑧ |⑦-⑧-|
46
⑥⑥⑤⑤ |①-②-|
②①①② |③-④-|
④③③④ |⑤-⑥-|
口口口口 |----|
47
口口口口 |----|
口口口口 |----|
口口口口 |----|
口口口口 |----|
48
口口口口 |----|
口口口口 |----|
口口口口 |----|
口口口口 |----|
49
口口口口 |----|
口口口口 |----|
口口口口 |----|
口口口口 |----|
50
口口②② |----|
口口①① |----|
口口口口 |①---|
口口口口 |②---|
51
①口口口 |①---|
②口口口 |②---|
③口口口 |③---|
④口口口 |④---|
52
①口口口 |①---|
②口口口 |②---|
③口口口 |③---|
④口口口 |④---|
53
①口口口 |①---|
②口口口 |②---|
③口口口 |③---|
④口口口 |④---|
54
④④口口 |①---|
③③口口 |②---|
口②②口 |③---|
口①①口 |④---|
55
③③①① |①---|
口口口口 |②---|
口口口口 |③---|
②口口④ |④---|
56
⑥口口③ |①②-③|
口⑤②口 |--④⑤|
口④①口 |-⑥--|
口⑦⑦口 |⑦---|
57
③③①① |①---|
口口口口 |②---|
口口口口 |③---|
②口口④ |④---|
58
⑥口口③ |①②-③|
口⑤②口 |--④⑤|
口④①口 |-⑥--|
口⑦⑦口 |⑦---|
59
口口口口 |①---|
①口口① |②---|
③③④④ |③-④-|
②口口② |----|
60
②②③③ |①---|
①①口口 |②---|
口口口口 |③---|
口口口口 |----|
61
⑥⑥⑤⑤ |①②--|
口④③口 |--③④|
口口口口 |----|
口②①口 |⑤-⑥-|
62
口口口口 |①-②-|
口口口口 |③-④-|
⑥⑤①② |⑤-⑥-|
⑦⑧④③ |⑦-⑧-|
63
口⑦⑥⑤ |①②-③|
口④②口 |④-⑤⑥|
口③①口 |⑦---|
口口口口 |----|
64
⑤⑥⑦口 |①②-③|
口②④口 |④-⑤⑥|
口①③口 |⑦---|
口口口口 |----|

accuracy: 100%
最終更新:2022年04月12日 14:00