アットウィキロゴ
MODEL FT2 Miracle Version
Mutsuhiko Izumi

ADVANCED

Level: 9.5
BPM: 155
Notes: 704

1
口口口口 |----|
口口口口 |----|
口口口口 |----|
①口口② |--①②|
2
⑩⑨⑧⑦ |--①②|
⑤⑥⑫⑪ |③④⑤⑥|
①②③④ |⑦⑧⑨⑩|
⑭⑬口口 |⑪⑫⑬⑭|
3
⑦⑥⑤④ |①-②-③-|
口③口口 |④⑤⑥⑦|
口口②口
口口口①

口口口口
口口⑨⑧
⑭⑮口口 |⑧⑨⑩⑪|
⑩⑪⑫⑬ |⑫⑬⑭⑮|
4
口④①⑤ |①②③④|
②口⑦口 |⑤⑥⑦⑧|
口口口③
⑥⑧口口

⑮⑭⑬口
口⑩口⑪
口⑫口口 |⑨⑩⑪⑫|
口口⑨口 |-⑬⑭⑮|
5
⑤口口① |①---|
口③口③ |②---|
②口②口 |③---|
口④口④ |④--⑤|
6
⑩⑪⑬⑫ |---①|
⑥⑦⑨⑧ |②③④⑤|
②③⑤④ |⑥⑦⑧⑨|
口口①口 |⑩⑪⑫⑬|
7
口口口口 |①②③④|
⑥⑤⑦⑧ |⑤⑥⑦⑧|
口口口口
②①③④

⑨口口⑫
口口口口
⑮⑪⑩⑭ |⑨⑩⑪⑫|
口⑬口口 |⑬⑭⑮-|
8
⑭②①⑬ |①②③④|
⑯④③⑮ |⑤⑥⑦⑧|
⑫⑥⑤⑪ |⑨⑩⑪⑫|
⑩⑧⑦⑨ |⑬⑭⑮⑯|
9
⑧②①⑧ |①②③④|
口④③口 |⑤-⑥⑦|
口口⑤口 |⑧-⑨-|
⑨⑦⑥⑨ |----|
10
口口口口 |①-②③|
口⑤②口 |④-⑤⑥|
①③⑥口
口口④口

口口口口
⑪口口⑧
⑨口口⑫ |⑦-⑧⑨|
口⑦口⑩ |⑩-⑪⑫|
11
⑪⑤②⑧ |①-②③|
⑨③⑥⑫ |④-⑤⑥|
口⑦④⑩ |⑦-⑧⑨|
①口口口 |⑩-⑪⑫|
12
口④口⑦ |①-②-|
口口⑤口 |③-④⑤|
①⑥口口 |⑥-⑦-|
⑧②口③ |--⑧-|
13
口⑦④口 |①-②-|
③⑤口② |③-④⑤|
⑧口⑥口 |⑥-⑦-|
口口口① |--⑧-|
14
口口口口 |①-②③|
口②⑤① |④-⑤⑥|
口⑥③口
口④口口

口口口口
⑧口口⑪
⑫口口⑨ |⑦-⑧⑨|
⑩口⑦口 |⑩-⑪⑫|
15
⑧②⑤⑪ |①-②③|
⑫⑥③⑨ |④-⑤⑥|
⑩④⑦口 |⑦-⑧⑨|
口口口① |⑩-⑪⑫|
16
⑦口④口 |①-②-|
口⑤口口 |③-④⑤|
口口⑥① |⑥-⑦-|
③口②⑧ |--⑧-|
17
口口口口 |①-②-|
②口⑤③ |③-④⑤|
口④口口
①口口口

口⑥口口
口口口口
口口口口 |⑥---|
⑦⑨⑧⑦ |⑦-⑧⑨|
18
口口①① |①---|
口口口① |----|
口口口口
口口口口

口③③口
口口口口
口口口口 |--②-|
④②④② |③-④-|
19
⑤口口① |①②-③|
⑥口③② |④-⑤⑥|
口口④口
口口口口

口口⑩⑩
口⑦口口
口⑧口口 |-⑦⑧-|
口口⑨口 |⑨-⑩-|
20
口口口口 |①---|
口口口口 |----|
②③口口 |--②-|
口①口① |③---|
21
⑤⑩⑩① |①②-③|
⑥⑦③② |④-⑤⑥|
口⑧④口 |-⑦⑧-|
口口口⑨ |⑨-⑩-|
22
口口⑤⑤ |①---|
口②口口 |----|
②口③口 |②-③-|
①③①④ |④-⑤-|
23
①①口口 |①---|
①②②口 |②---|
口②③③ |③---|
口口③口 |----|
24
⑤口口① |①②-③|
⑥口③② |④-⑤⑥|
口口④口
口口口口

口口⑩⑩
口⑦口口
口⑧口口 |-⑦⑧-|
口口⑨口 |⑨-⑩-|
25
口口口口 |①---|
口口口口 |----|
口口口口 |②---|
②①②① |----|
26
①②④③ |①②-③|
①②④③ |④-⑤⑥|
⑤⑥口口
口口口口

口口⑨⑨
口口口口
口口⑦口 |⑦-⑧-|
口⑧口⑧ |---⑨|
27
①口口口 |----|
口口口口 |--①-|
④口②口 |--②-③-|
⑥口⑤③ |-④⑤⑥|
28
⑩②⑨① |①②③④|
⑫④⑪③ |⑤⑥⑦⑧|
⑭⑥⑬⑤ |⑨⑩⑪⑫|
⑯⑧⑮⑦ |⑬⑭⑮⑯|
29
⑥④⑤③ |①②③④|
⑧②⑦① |⑤⑥⑦⑧|
⑭⑫⑬⑪ |⑨⑩⑪⑫|
⑯⑩⑮⑨ |⑬⑭⑮⑯|
30
口②⑦① |①②③④|
④口③口 |⑤⑥⑦-|
口口口口
口⑥口⑤

口口口口
口⑪⑫口
⑧⑨⑩口 |⑧⑨⑩-|
口口口口 |⑪⑫--|
31
口口口① |①---|
口口口① |----|
口口口口
口口口口

②③④⑤
⑨⑧⑦⑥
口口口口 |②③④⑤|
口口口口 |⑥⑦⑧⑨|
32
⑩⑭⑬⑨ |①②③④|
⑫⑯⑮⑪ |⑤⑥⑦⑧|
④⑧①⑤ |⑨⑩⑪⑫|
②⑥③⑦ |⑬⑭⑮⑯|
33
口口口口 |①②③④|
口口口口 |⑤⑥⑦⑧|
②⑥⑤①
④⑧⑦③

口⑫⑪口
⑩口口⑨
⑭口口⑬ |⑨⑩⑪⑫|
⑯口口⑮ |⑬⑭⑮⑯|
34
口口口③ |①②③-|
口口③口 |----|
口②①口 |----|
④口口④ |④---|
35
⑨⑬口⑫ |①②③④|
④③⑧⑦ |⑤⑥⑦⑧|
②①⑥⑤ |-⑨⑩⑪|
⑪⑮⑩⑭ |⑫⑬⑭⑮|
36
⑤口口口 |①②③④|
②口口③ |-⑤⑥⑦|
④⑦⑥①
口口口口

口⑬⑫口
口⑨⑧口
⑮口口⑭ |⑧⑨⑩⑪|
⑪口口⑩ |⑫⑬⑭⑮|
37
口口口⑦ |①②③④|
②⑥⑤① |⑤⑥⑦⑧|
口口口口
⑧④③口

⑩⑫⑪口
⑯口口⑮
口⑭⑬口 |⑨⑩⑪⑫|
口口口⑨ |⑬⑭⑮⑯|
38
口⑦⑥⑤ |①②③④|
口⑪⑧口 |⑤⑥⑦-|
②⑨⑫① |⑧-⑨-⑩-|
⑩④③⑬ |⑪-⑫-⑬-|
39
④③②① |①②③④|
⑩⑯⑥⑤ |⑤⑥⑦⑧|
⑧⑦⑪⑬ |⑨⑩⑪⑫|
⑫⑭⑨⑮ |⑬⑭⑮⑯|
40
③⑤①② |①-②-|
口口②① |③④⑤⑥|
口口口⑥
口口④口

口口口口
⑦⑨⑫⑩
⑪⑬⑧口 |⑦⑧⑨⑩|
口口口⑭ |⑪⑫⑬⑭|
41
①②③④ |①②③④|
⑤⑥⑯⑩ |⑤⑥⑦⑧|
⑬⑪⑦⑧ |⑨⑩⑪⑫|
⑮⑨⑭⑫ |⑬⑭⑮⑯|
42
③⑪⑥② |①②③④|
①⑨⑭⑩ |⑤⑥⑦⑧|
⑮⑦④⑧ |⑨⑩⑪⑫|
⑬⑤⑫⑯ |⑬⑭⑮⑯|
43
①⑨④② |①②③④|
⑤⑬⑫⑩ |⑤⑥⑦⑧|
⑮⑦⑧⑥ |⑨⑩⑪⑫|
⑪③⑯⑭ |⑬⑭⑮⑯|
44
①口④③ |①②③④|
②口⑧⑦ |⑤⑥⑦⑧|
口⑤口口
口⑥口口

⑬⑨口口
口⑩口口
口口⑫⑪ |⑨⑩⑪⑫|
口口⑬口 |⑬---|
45
①口口口 |----|
⑤④③② |---①|
口口⑦⑥ |--②③|
口口口口 |④⑤⑥⑦|
46
口⑦⑥⑧ |①②③④|
口⑨⑩口 |⑤--⑥|
②①⑧口 |⑦-⑧-|
口⑤④③ |--⑨⑩|
47
⑤④③口 |①---|
口口⑦① |--②-|
⑥口口口 |③④⑤-|
口②口口 |⑥-⑦-|
48
口口③③ |①-②-|
口口⑦② |③-④⑤|
口①口⑦ |⑥---|
⑥⑤④口 |⑦---|
49
口口口口 |①---|
口①口口 |----|
①口口口
口口口口

口口⑧⑨
⑥⑦口口
口口④⑤ |②③④⑤|
②③口口 |⑥⑦⑧⑨|
50
①口口口 |①---|
口口口口 |--②-|
口①口②
口口口口

口口口口
口⑤⑥口
口④③口 |③---|
④口口③ |④-⑤⑥|
51
⑤④③口 |①---|
口口⑦① |--②-|
⑥口口口 |③④⑤-|
口②口口 |⑥-⑦-|
52
口口③③ |①-②-|
口口⑦② |③-④⑤|
口①口⑦ |⑥---|
⑥⑤④口 |⑦---|
53
口口口口 |①---|
口①口口 |----|
①口口口
口口口口

口口⑧⑨
⑥⑦口口
口口④⑤ |②③④⑤|
②③口口 |⑥⑦⑧⑨|
54
口①口口 |①---|
口口口口 |----|
①③②口 |②---|
③口口② |③---|
55
①③③① |①---|
口口口口 |----|
①口口① |--②-|
④④②② |③-④-|
56
⑤口口① |①②-③|
⑥口③② |④-⑤⑥|
口口④口
口口口口

口口⑩⑩
口⑦口口
口⑧口口 |-⑦⑧-|
口口⑨口 |⑨-⑩-|
57
口口口口 |①---|
口口口口 |----|
②③口口 |--②-|
口①口① |③---|
58
⑤⑩⑩① |①②-③|
⑥⑦③② |④-⑤⑥|
口⑧④口 |-⑦⑧-|
口口口⑨ |⑨-⑩-|
59
口口⑤⑤ |①---|
口②口口 |----|
②口③口 |②-③-|
①③①④ |④-⑤-|
60
①①口口 |①---|
①②②口 |②---|
口②③③ |③---|
口口③口 |----|
61
⑤口口① |①②-③|
⑥口③② |④-⑤⑥|
口口④口
口口口口

口口⑩⑩
口⑦口口
口⑧口口 |-⑦⑧-|
口口⑨口 |⑨-⑩-|
62
口口口口 |①---|
口口口口 |----|
口口口口 |②---|
②①②① |----|
63
①②④③ |①②-③|
①②④③ |④-⑤⑥|
⑤⑥⑦口 |⑦---|
口口口口 |----|
64
①③①③ |①②-③|
②④②④ |④-⑤⑥|
⑤⑥⑥⑤ |⑦---|
口⑦⑦口 |----|

accuracy: 100%
最終更新:2024年11月23日 01:45