アットウィキロゴ
MODEL FT2 Miracle Version
Mutsuhiko Izumi

EXTREME

Level: 9.5
BPM: 155
Notes: 588

1
口口口口 |----|
口口口口 |----|
口口口口 |----|
口口口口 |----|
2
⑫⑪口① |①-②③|
⑨⑧⑩① |④-⑤⑥|
⑥⑤⑦口 |⑦-⑧⑨|
③②④口 |⑩-⑪⑫|
3
⑫⑪①口 |①-②③|
⑨⑧⑩口 |④-⑤⑥|
⑥⑤⑦口 |⑦-⑧⑨|
③②④口 |⑩-⑪⑫|
4
⑦口①② |①-②-|
⑦口口② |③-④⑤|
⑤④⑥③ |⑥-⑦-|
⑧⑧口③ |--⑧-|
5
⑦口①② |①-②-|
⑦口⑧② |③-④⑤|
⑤④⑥③ |⑥-⑦-|
口口口③ |--⑧-|
6
⑫⑪口① |①-②③|
⑨⑧⑩① |④-⑤⑥|
⑥⑤⑦口 |⑦-⑧⑨|
③②④口 |⑩-⑪⑫|
7
⑫⑪①口 |①-②③|
⑨⑧⑩口 |④-⑤⑥|
⑥⑤⑦口 |⑦-⑧⑨|
③②④口 |⑩-⑪⑫|
8
⑦口①② |①-②-|
⑦口口② |③-④⑤|
⑤④⑥③ |⑥-⑦-|
口⑧口③ |--⑧-|
9
口②①口 |①②③④|
口④③口 |⑤-⑥-|
口口⑤口
⑥口口口

⑦口口⑦
口⑨⑩口
口口口口 |⑦-⑧-|
口⑧⑧口 |--⑨⑩|
10
⑤④③口 |①---|
口口⑦① |--②-|
⑥口口口 |③④⑤-|
口②口口 |⑥-⑦-|
11
口口③③ |①-②-|
口口⑦② |③-④⑤|
口①口⑦ |⑥---|
⑥⑤④口 |⑦---|
12
口口口口 |①---|
口①口口 |----|
①口口口
口口口口

口口⑧⑨
⑥⑦口口
口口④⑤ |②③④⑤|
②③口口 |⑥⑦⑧⑨|
13
①口口口 |①---|
口口口口 |--②-|
口①口②
口口口口

口口口口
口⑤⑥口
口④③口 |③---|
④口口③ |④-⑤⑥|
14
⑤④③口 |①---|
口口⑦① |--②-|
⑥口口口 |③④⑤-|
口②口口 |⑥-⑦-|
15
口口③③ |①-②-|
口口⑦② |③-④⑤|
口①口⑦ |⑥---|
⑥⑤④口 |⑦---|
16
口口口口 |①---|
口①口口 |----|
①口口口
口口口口

口口⑧⑨
⑥⑦口口
口口④⑤ |②③④⑤|
②③口口 |⑥⑦⑧⑨|
17
口①口口 |①---|
口口口口 |----|
①③②口 |②---|
③口口② |③---|
18
①⑥③① |①---|
口⑦④口 |----|
①口⑤① |②-③④|
口口口② |⑤-⑥⑦|
19
口口口口 |①---|
⑥⑦⑧⑨ |----|
口①④⑤ |②③④⑤|
②③口口 |⑥⑦⑧⑨|
20
①⑥③口 |①---|
口⑦④口 |----|
口①⑤口 |②-③④|
口口口② |⑤-⑥⑦|
21
口口⑧⑨ |①---|
⑥⑦口口 |----|
口①④⑤ |②③④⑤|
②③口口 |⑥⑦⑧⑨|
22
①口口口 |①---|
口口口口 |----|
口①口口 |----|
口口口口 |----|
23
口口①① |①---|
口②②① |②---|
③③②口 |③---|
口③口口 |----|
24
口口口口 |----|
口口口口 |----|
口口口口 |----|
口口口口 |----|
25
④③②① |①②③④|
⑧⑦⑥⑤ |⑤⑥⑦⑧|
⑫⑪⑩⑨ |⑨⑩⑪⑫|
⑯⑮⑭⑬ |⑬⑭⑮⑯|
26
③④②① |①②-③|
③④②① |④-⑤⑥|
口⑦⑥⑤ |⑦-⑧-|
⑧口⑧口 |----|
27
口口口口 |①---|
①口口① |---②|
口口口口
口口口②

③④⑤⑥
⑦⑧⑨⑩
口口口口 |③④⑤⑥|
口口口口 |⑦⑧⑨⑩|
28
口口口口 |①-②-③-|
口口口口 |----|
口①口口
口口②③

口口口口
口口口口
④口⑥⑤ |④-⑤⑥|
⑦⑧⑨⑩ |⑦⑧⑨⑩|
29
⑤①⑦③ |①②③④|
⑥②⑧④ |⑤⑥⑦⑧|
⑬⑨⑮⑪ |⑨⑩⑪⑫|
⑭⑩⑯⑫ |⑬⑭⑮⑯|
30
④③②① |①②③④|
⑧⑦⑥⑤ |⑤⑥⑦⑧|
⑨口口口 |⑨---|
口口⑩⑩ |⑩---|
31
①口⑧② |①---|
③④⑤⑧ |----②-|?
⑦⑥口口 |--③④|
口口口口 |⑤⑥⑦⑧|
32
⑧⑨⑩⑤ |---①|
⑦口⑤口 |②③④-|
⑥口②① |⑤-⑥⑦|
③④口口 |⑧⑨⑩-|
33
口⑥⑤④ |----|
②口口① |--①-|
口③③口 |-②-③|
口②①口 |-④⑤⑥|
34
①口口口 |①②③④|
⑤④③② |⑤⑥--|
口口口口 |----|
口⑥⑥口 |----|
35
口口④口 |----|
③口⑥口 |-①-②|
⑤口⑧② |③-④-⑤-|
⑦①口口 |⑥-⑦-⑧-|
36
口⑧口② |①-②-③-|
⑥①⑦④ |④---|
口③口口 |⑤---|
口⑤⑤口 |⑥-⑦-⑧-|
37
口口口① |①-②③|
口⑤口口 |-④⑤-|
④口③④
②口口②

口⑧⑦口
⑥口口⑥
口口口口 |⑥⑦-⑧|
⑨⑨⑩⑩ |-⑨-⑩|
38
①口②口 |--①-|
口口③口 |②-③-④-|
口④④口 |----|
口口口口 |----|
39
②③③① |①---|
口④④口 |--②---|
口⑤⑤口 |-③------|
口口口口 |④--⑤|
40
口口③口 |--①-|
口②口③ |----|
口口②口 |----|
口①①口 |②-③-|
41
①口口口 |----|
⑤口②口 |-①②③|
口③口口 |④---|
口口口④ |--⑤-|
42
②③口口 |①-②③|
口口⑤④ |④-⑤-⑥-|
⑧⑦⑥① |⑦-⑧---|
口口口口 |----|
43
⑩⑨⑧口 |①②③④|
⑬⑥⑪⑫ |⑤-⑥-⑦-|
⑦口⑤口 |⑧⑨⑩⑪|
①②③④ |⑫-⑬-|
44
口口口口 |①-②-③-|
口⑧口口 |④-⑤-⑥-|
⑦口②① |⑦-⑧-|
③④⑥⑤ |----|
45
⑫⑪口① |①-②③|
⑨⑧⑩① |④-⑤⑥|
⑥⑤⑦口 |⑦-⑧⑨|
③②④口 |⑩-⑪⑫|
46
⑧口①口 |①-②③|
⑧⑨⑩口 |④-⑤⑥|
⑥⑤口⑦ |⑦-⑧-|
③②④⑦ |--⑨⑩|
47
⑤④③口 |①---|
口口⑦① |--②-|
⑥口口口 |③④⑤-|
口②口口 |⑥-⑦-|
48
口口③③ |①-②-|
口口⑦② |③-④⑤|
口①口⑦ |⑥---|
⑥⑤④口 |⑦---|
49
口口口口 |①---|
口①口口 |----|
①口口口
口口口口

口口⑧⑨
⑥⑦口口
口口④⑤ |②③④⑤|
②③口口 |⑥⑦⑧⑨|
50
①口口口 |①---|
口口口口 |--②-|
口①口②
口口口口

口口口口
口⑤⑥口
口④③口 |③---|
④口口③ |④-⑤⑥|
51
⑤④③口 |①---|
口口⑦① |--②-|
⑥口口口 |③④⑤-|
口②口口 |⑥-⑦-|
52
口口③③ |①-②-|
口口⑦② |③-④⑤|
口①口⑦ |⑥---|
⑥⑤④口 |⑦---|
53
口口口口 |①---|
口①口口 |----|
①口口口
口口口口

口口⑧⑨
⑥⑦口口
口口④⑤ |②③④⑤|
②③口口 |⑥⑦⑧⑨|
54
口①口口 |①---|
口口口口 |----|
①③②口 |②---|
③口口② |③---|
55
①⑥③① |①---|
口⑦④口 |----|
①口⑤① |②-③④|
口口口② |⑤-⑥⑦|
56
口口口口 |①---|
⑥⑦⑧⑨ |----|
口①④⑤ |②③④⑤|
②③口口 |⑥⑦⑧⑨|
57
①⑥③口 |①---|
口⑦④口 |----|
口①⑤口 |②-③④|
口口口② |⑤-⑥⑦|
58
口口⑧⑨ |①---|
⑥⑦口口 |----|
口①④⑤ |②③④⑤|
②③口口 |⑥⑦⑧⑨|
59
①口口口 |①---|
口口口口 |----|
口①口口 |----|
口口口口 |----|
60
口口①① |①---|
口②②① |②---|
③③②口 |③---|
口③口口 |----|
61
口口口口 |----|
口口口口 |----|
口口口口 |----|
口口口口 |----|
62
④③②① |①②③④|
⑧⑦⑥⑤ |⑤⑥⑦⑧|
⑫⑪⑩⑨ |⑨⑩⑪⑫|
⑯⑮⑭⑬ |⑬⑭⑮⑯|
63
③④②① |①②-③|
③④②① |④-⑤⑥|
口⑦⑥⑤ |⑦---|
口口口口 |----|
64
③①③① |①②-③|
④②④② |④-⑤⑥|
⑤⑥⑥⑤ |⑦---|
口⑦⑦口 |----|

accuracy: 100%
最終更新:2024年11月23日 01:34