アットウィキロゴ
Endless Beats ⇔ Endless Parties
かめりあ

EXTREME

Level: 10.3
BPM: 152
Notes(hold): 708(49)

1
口口口口 |----|
口口口口 |----|
口口口口 |----|
口口口口 |----|
2
口口口口 |①---|
口口口口 |----|
口口①口 |----|
口口∧口 |----|
3
口口口口 |----|
②③④口 |----|
口口①口 |----|
口口口口 |①②③④|
4
口口>① |①---|
口口口口 |----|
口口口口 |----|
口口口口 |----|
5
口口口口 |----|
口口口口 |----|
口口口口 |----|
口口口口 |----|
6
口口口① |①---|
①<>① |----|
口口口口 |----|
口口口口 |----|
7
口口口口 |----|
①口口① |----|
口口口口 |----|
口口口口 |①---|
8
口口口⑤ |①---|
口口口口 |--②③|
口②③④ |④--⑤|
口⑦⑥① |--⑥⑦|
9
②口口口 |①--②|
口口口口 |--③-|
口③口口 |----|
①口口口 |④⑤⑥⑦|

⑦⑥⑤④
口口口口
口口口口
口口口口
10
口口口⑤ |①---|
口口口口 |--②③|
口②③④ |④--⑤|
口⑦⑥① |--⑥⑦|
11
口口③口 |①--②|
②口口③ |--③-|
口②口口 |----|
①口口口 |----|
12
⑤口口口 |①---|
口口口口 |--②③|
④③②口 |④--⑤|
①⑥⑦口 |--⑥⑦|
13
口口口② |①--②|
口③⑥口 |--③-|
口⑤口口 |--④-|
口口④① |⑤-⑥-|
14
①口②口 |①---|
口④③④ |----|
口口口② |②--③|
∧③口口 |---④|
15
口口口① |----|
口口口口 |----|
口口口② |--①-|
口口口口 |-②--|
16
①②①口 |①②③④|
口④③口 |⑤⑥⑦⑧|
口⑥⑤口 |⑨⑩⑪⑫|
口⑧⑦口 |⑬⑭⑮⑯⑰⑱|

⑯⑮⑭⑬
口⑱⑰口
⑫口口⑪
⑩口口⑨
17
⑥④⑥④ |--①-|
③⑥口② |②-③-|
⑥①⑥口 |④-⑤-|
③⑤口② |⑥---|
18
口⑥口⑥ |①---|
②口②口 |②-③④|
⑥③④⑤ |⑤--⑥|
口⑧⑦① |--⑦⑧|
19
口口口口 |①--②|
②口②口 |--③-|
口③口< |--④-|
①口口② |⑤⑥⑦⑧|

⑧⑦⑥⑤
口口口口
口④口口
口口口口
20
口口口口 |①---|
②口②口 |②-③④|
口③④口 |⑤--⑥|
口口口① |--⑦⑧|

口⑥口⑥
口口口口
⑥口口⑤
⑧口口⑦
21
①口>③ |①--②|
③①③① |--③-|
口口口口 |--④-|
口②②口 |⑤-⑥-|

⑥口口④
口口口口
⑤口④口
口口口口
22
口口口口 |①②--|
口③口③ |③-④⑤|
口⑤④口 |⑥--⑦|
①口<③ |--⑧⑨|

口口口⑦
口口⑦口
⑥口口⑦
②⑧⑨口
23
口②>③ |①--②|
②③口口 |--③-|
口②口③ |--④-|
口口口① |⑤-⑥-|

⑥口口④
口口口⑤
口口口口
口④口口
24
口口⑨⑧ |①-②③|
①⑦⑫口 |④⑤⑥⑦|
口④⑤⑥ |⑧⑨-⑩|
∧⑩③② |⑪⑫--|

口口口口
⑪口口口
口口口口
口口口口
25
③④⑤⑥ |①②③④|
口口口口 |⑤⑥⑦⑧|
口口口口 |⑨--⑩|
⑦⑧①② |--⑪-|

口口口口
⑩口⑨口
口口口⑨
口口⑪口
26
⑤⑥⑦⑧ |①②③④|
口口口口 |⑤⑥⑦⑧|
①②③④ |⑨⑩⑪⑫|
口口口口 |⑬⑭-⑮|

口口口口
⑬⑭口口
口口口⑮
⑨⑩⑪⑫
27
③②①口 |-①②③|
口⑨⑩⑧ |--④⑤|
口⑤④口 |⑥⑦-⑧|
口⑦⑥口 |-⑨⑩-|
28
①②③④ |①②③④|
口口口口 |⑤⑥⑦⑧|
⑤⑥⑦⑧ |⑨⑩⑪⑫|
口口口口 |⑬⑭-⑮|

口口口⑮
⑨⑩⑪⑫
口口口口
⑬⑭口口
29
口⑤④口 |-①②③|
口⑦⑥口 |--④⑤|
③②①口 |⑥⑦-⑧|
口⑨⑩⑧ |-⑨⑩-|
30
④③②① |①②③④|
⑫⑪⑩⑨ |⑤⑥⑦⑧|
⑧⑦⑥⑤ |⑨⑩⑪⑫|
⑯⑮⑭⑬ |⑬⑭⑮⑯|
31
口①②③ |-①②③|
口口口口 |--④⑤|
口④⑤口 |⑥⑦-⑧|
口口口口 |-⑨-⑩|

V口⑨口
口⑥⑦⑨
⑩口口口
⑧⑩口口
32
口口④④ |----|
口③①口 |①---|
④④口口 |②---|
口口②口 |③-④-|
33
③③⑥⑥ |--①-|
口④①∧ |②-③-|
⑤口口② |--④-|
⑥⑥③③ |⑤-⑥-|
34
⑤③口② |----|
口口口口 |①-②-|
⑤①④口 |③---|
口⑤⑤口 |④-⑤-|
35
口③③口 |--①-|
③<口② |②-③-|
口口口① |----|
③口口口 |④---|

口口口口
④口口口
口口口口
口口口口
36
③口>⑤ |①--②|
⑦⑥<④ |③-④-|
⑥⑦②< |⑤--⑥|
⑤①>① |--⑦-|

口口口⑥
口⑦口口
口口④口
口口口②
37
⑤①⑤口 |①--②|
⑥口∧口 |③-④-|
⑦口④② |⑤--⑥|
③>①∧ |--⑦-|

口口⑥口
口口口口
口口口④
口口②口
38
③口>⑤ |①--②|
⑦⑥<④ |③-④-|
⑥⑦②< |⑤--⑥|
⑤①>① |--⑦-|

口口口⑥
口⑦口口
口口④口
口口口②
39
⑤①⑤⑥ |①--②|
⑥⑦∧∧ |③-④-|
⑦口④② |⑤--⑥|
③>①∧ |--⑦-|

口口⑥⑦
口口口口
口口口④
口口②口
40
口⑦口 |①---|
⑥口②⑤ |--②③|
口①③口 |④-⑤-|
口∧④口 |⑥-⑦-|

口口口口
口口口口
口②口口
口口口口
41
口口口口 |----|
⑤①⑥口 |--①②|
口②④口 |③-④-|
口③口口 |⑤-⑥-|
42
⑧口①③ |①---|
口口⑦④ |②-③④|
V口口⑤ |⑤-⑥-|
①⑥口口 |⑦-⑧-|

口口口口
口口口口
口口口口
②口口口
43
口④④口 |①---|
③口口③ |②---|
②②②② |③---|
①口口① |④---|
44
口⑥④② |①---|
⑦⑤③口 |②-③-|
⑥④②口 |④-⑤-|
①口<① |⑥-⑦-|

口口口口
口口口口
口口口口
⑤口口口
45
①口口① |①---|
⑥④②口 |②-③-|
⑦⑤③∧ |④-⑤-|
口⑥④② |⑥-⑦-|

口口口⑤
口口口口
口口口口
口口口口
46
口②①口 |①②③④|
口④③口 |⑤⑥⑦⑧|
口⑥⑤口 |⑨⑩⑪⑫|
口⑧⑦口 |⑬⑭⑮⑯⑰⑱|

⑯⑮⑭⑬
口⑱⑰口
⑫口口⑪
⑩口口⑨
47
⑥④⑥④ |--①-|
③⑥口② |②-③-|
⑥①⑥口 |④-⑤-|
③⑤口② |⑥---|
48
口⑤口口 |①-②-|
口口③⑤ |③④-⑤|
口④口口 |--⑥⑦|
口口>① |--⑧-|

口口口口
口口口口
口口口口
口口口②

口口口口
口⑦口口
口口⑥口
⑧口口口
49
④口口② |①--②|
②口⑤口 |-③-④|
口口③③ |⑤⑥⑦⑧|
口口①① |⑨⑩⑪⑫|

口口⑦⑪
口口口⑨
⑧⑥口口
⑩⑫口口
50
口⑤口口 |①-②-|
口口③⑤ |③④-⑤|
口④口口 |--⑥⑦|
口口>① |--⑧-|

口口口口
口口口口
口口口口
口口口②

口口口口
口⑦口口
口口⑥口
口口口⑧
51
口口②④ |①②-③|
③口口口 |-④-⑤|
口⑤口② |-⑥⑦⑧|
①③口口 |⑨⑩⑪⑫|

⑨口⑩口
口口口口
⑦口⑧口
⑪口⑫⑥
52
⑨⑧⑦③ |①②--|
①口口< |③④⑤⑥|
口④⑤⑥ |-⑦⑧⑨|
⑩口口③ |--⑩-|

口口口口
②口口口
口口口口
口口口口
53
④口口② |①--②|
②口口口 |-③-④|
口口③③ |⑤⑥⑦⑧|
口口①① |⑨⑩⑪⑫|

口口⑦⑪
口口⑤⑨
⑧⑥口口
⑩⑫口口
54
③<>⑦ |①-②③|
①<>⑤ |-④--|
⑦⑤①③ |⑤-⑥⑦|
⑤⑦③① |-⑧--|

④口口⑧
②口口⑥
口口口口
口口口口
55
②④⑦口 |①②-③|
④口∧⑦ |-④-⑤|
⑥⑦③⑤ |⑥--⑦|
⑥⑤① |--⑧-|

⑧口⑧口
口口口口
口口⑧口
口⑦口口
56
口⑤口⑤ |①---|
①<口口 |②-③④|
⑧口⑥④ |⑤--⑥|
⑦⑥②③ |--⑦⑧|

口口口口
②口口口
口口口口
口口口口
57
①口①③ |①--②|
③<口口 |--③-|
口②③口 |--④-|
口口②口 |⑤---|

口④⑤口
④口口口
⑤口口④
口口口口
58
口口口口 |①---|
口口>① |②-③④|
④口口口 |⑤--⑥|
③②口① |--⑦⑧|

⑤口⑤口
口口口②
口⑥口⑧
口口⑥⑦
59
⑤①③① |①--②|
口口>③ |--③-|
②④③⑤ |--④-|
②②口口 |⑤---|

口口口口
口口口④
口口口口
口口口口
60
口口口口 |①---|
①<口口 |②-③④|
②口口④ |⑤--⑥|
①口②③ |--⑦⑧|

口⑤口⑤
②口⑤口
⑧口⑥口
⑦⑥口口
61
①口①③ |①--②|
③<口① |--③-|
口②③口 |--④-|
口③②口 |⑤-⑥-|

口④口口
④口⑤口
口⑥口口
口口口口
62
②⑨③口 |①-②-|
⑧口④V |--③④|
口⑦⑤口 |⑤⑥-⑦|
口口⑥① |-⑧-⑨|
63
⑧⑦⑥⑤ |①--②|
⑨④口口 |-③-④|
⑩口③口 |---⑤⑥⑦|
⑪②口① |⑧⑨⑩⑪|
64
口③口口 |--①-|
口②口口 |--②③|
口口口① |④⑤⑥⑦|
口口口口 |⑧⑨⑩⑪|

口口④⑪
口口⑤⑩
口口⑥⑨
口口⑦⑧
65
口④口口 |--①-|
②口口⑥ |②③-④|
③口口⑦ |--⑤-|
口①⑤口 |⑥⑦--|
66
①②③④ |--①②③④|
⑬⑭⑮⑯ |⑤⑥⑦⑧--|
⑫⑪⑩⑨ |⑨⑩⑪⑫--|
⑤⑥⑦⑧ |⑬⑭⑮⑯--|
67
①⑤⑧④ |①②③④|
口口口口 |⑤⑥⑦⑧|
口口口口 |⑨--⑩|
⑦③②⑥ |--⑪-|

⑪口口口
口⑨⑪⑩
⑩口⑨口
口口口口
68
口口口① |①---|
口口口口 |--②③|
口口②口 |----|
口①③口 |----|
69
口口口口 |----|
①②③口 |----|
口口口口 |----|
口口口口 |-①②③|
70
口口口① |①---|
口口口口 |-----②-③|
口口②口 |----|
④口③口 |---④|
71
口口口③ |-①--|
口②口口 |-②------|
口口④① |③---|
⑤口口口 |--④----⑤|
72
口口④口 |-①-②-③--|
口口∧口 |-------④|
口口口口 |----|
口①②③ |----|
73
口口口口 |----|
口口口口 |----|
口口口口 |----|
口口口口 |----|
74
口口口口 |----|
口口口口 |----|
口口口口 |----|
口口口口 |----|
75
口口口口 |----|
口口口口 |----|
口口口口 |----|
口口口口 |----|
76
口口①口 |-------①|
口口口口 |----|
口口口口 |----|
口口口口 |----|
最終更新:2019年11月04日 16:44