アットウィキロゴ
ハム太郎とっとこうた(すーぱーとっとこみっくす)
Remixed by BEMANI Sound Team "DJ TOTTO" feat.ななひら

BASIC

Level: 3
BPM: 140
Notes: 186

1
口口口口 |----|
口口口口 |----|
口口口口 |----|
口口口口 |----|
2
口口口口 |①---|
口口口口 |----|
口口口② |②---|
口口口① |----|
3
口③③口 |①---|
口②②口 |②---|
口①①口 |③---|
口口口口 |----|
4
口口口口 |①---|
口口口口 |----|
②口口口 |②---|
①口口口 |----|
5
口③③口 |①---|
口②②口 |②---|
口①①口 |③---|
口口口口 |----|
6
口口口口 |①---|
口口口口 |----|
口口口② |②---|
口口口① |----|
7
口③③口 |①---|
口②②口 |②---|
口①①口 |③---|
口口口口 |----|
8
口口口口 |①---|
口口口口 |----|
②口口口 |②---|
①口口口 |----|
9
口③③口 |①---|
口②②口 |②---|
口①①口 |③---|
口口口口 |----|
10
口口②① |①---|
口口口口 |----|
口口口口 |②---|
口口口口 |----|
11
②①口口 |①---|
口口口口 |----|
口口口口 |②---|
口口口口 |----|
12
口口口口 |①---|
①②口口 |----|
口口口口 |②---|
口口口口 |----|
13
口口口口 |①---|
口口①② |----|
口口口口 |②---|
口口口口 |----|
14
①口口① |①---|
②口口② |----|
口口口口 |②---|
口口口口 |----|
15
口口口口 |①---|
口口口口 |----|
①口口① |----|
口口口口 |----|
16
口口口口 |①---|
口口口口 |----|
②口口② |②---|
口①①口 |----|
17
口口口口 |①---|
口①①口 |----|
口口口口 |----|
口口口口 |----|
18
口口②① |①---|
口口口口 |----|
口口口口 |②---|
口口口口 |----|
19
②①口口 |①---|
口口口口 |----|
口口口口 |②---|
口口口口 |----|
20
口口口口 |①---|
口①①口 |----|
口②②口 |②---|
口口口口 |----|
21
口口口口 |①---|
口口口口 |----|
口口口口 |----|
口①①口 |----|
22
口口口口 |①---|
口②①口 |----|
口口口口 |②---|
口口口口 |----|
23
口口口口 |①---|
口口口口 |----|
口①②口 |②---|
口口口口 |----|
24
口口口口 |①---|
口②①口 |----|
口口口口 |②---|
口口口口 |----|
25
口口口口 |①---|
口口口口 |----|
口①②口 |②---|
口口口口 |----|
26
①口口① |①---|
②口口② |----|
口口口口 |②---|
口口口口 |----|
27
口口口口 |①---|
口口口口 |----|
①口口① |----|
口口口口 |----|
28
口口口口 |①---|
口口口口 |----|
②口口② |②---|
口①①口 |----|
29
口口口口 |①---|
口①①口 |----|
口口口口 |----|
口口口口 |----|
30
口口口口 |①---|
口②①口 |----|
口口口口 |②---|
口口口口 |----|
31
口口口口 |①---|
口口口口 |----|
口①②口 |②---|
口口口口 |----|
32
口口口口 |①---|
口②①口 |----|
口口口口 |②---|
口口口口 |----|
33
口口口口 |①---|
口口口口 |----|
口①②口 |②---|
口口口口 |----|
34
口口口口 |①---|
①口口① |----|
口口口口 |----|
口口口口 |----|
35
口①①口 |①---|
口口口口 |----|
口口口口 |----|
口口口口 |----|
36
口口口口 |①---|
口口口口 |----|
口口口口 |----|
①口口① |----|
37
口口口口 |①---|
口口口口 |----|
口①①口 |----|
口口口口 |----|
38
口口口口 |①---|
①口口① |----|
口口口口 |----|
口口口口 |----|
39
口①①口 |①---|
口口口口 |----|
口口口口 |----|
口口口口 |----|
40
口口口口 |①---|
口口口口 |----|
口口口口 |----|
①口口① |----|
41
口口口口 |①---|
口口口口 |----|
口①①口 |----|
口口口口 |----|
42
口口口① |①---|
口口口② |----|
口口口口 |②---|
口口口口 |----|
43
口口口口 |①---|
口①①口 |②---|
口②②口 |③---|
口③③口 |----|
44
①口口口 |①---|
②口口口 |----|
口口口口 |②---|
口口口口 |----|
45
口口口口 |①---|
口①①口 |②---|
口②②口 |③---|
口③③口 |----|
46
口口口① |①---|
口口口② |----|
口口口口 |②---|
口口口口 |----|
47
口口口口 |①---|
口①①口 |②---|
口②②口 |③---|
口③③口 |----|
48
①口口口 |①---|
②口口口 |----|
口口口口 |②---|
口口口口 |----|
49
口口口口 |①---|
口①①口 |②---|
口②②口 |③---|
口③③口 |----|
50
口口②① |①---|
口口口口 |----|
口口口口 |②---|
口口口口 |----|
51
②①口口 |①---|
口口口口 |----|
口口口口 |②---|
口口口口 |----|
52
口口口口 |①---|
①②口口 |----|
口口口口 |②---|
口口口口 |----|
53
口口口口 |①---|
口口①② |----|
口口口口 |②---|
口口口口 |----|
54
①口口① |①---|
②口口② |----|
口口口口 |②---|
口口口口 |----|
55
口口口口 |①---|
口口口口 |----|
①口口① |----|
口口口口 |----|
56
口口口口 |①---|
口口口口 |----|
②口口② |②---|
口①①口 |----|
57
口口口口 |①---|
口①①口 |----|
口口口口 |----|
口口口口 |----|
58
口口②① |①---|
口口口口 |----|
口口口口 |②---|
口口口口 |----|
59
②①口口 |①---|
口口口口 |----|
口口口口 |②---|
口口口口 |----|
60
口口口口 |①---|
口①①口 |----|
口②②口 |②---|
口口口口 |----|
61
口口口口 |①---|
口口口口 |----|
口口口口 |----|
口①①口 |----|
62
口口③口 |①---|
口口②口 |----|
口口口① |②---|
口口口口 |③---|
63
口③口口 |①---|
口②口口 |----|
①口口口 |②---|
口口口口 |③---|
64
①口口① |①---|
②口口② |②---|
③口口③ |③---|
④口口④ |④---|
65
口口口口 |①---|
口①①口 |----|
口①①口 |----|
口口口口 |----|

accuracy: 99.5%
最終更新:2024年09月08日 17:01