アットウィキロゴ
ハム太郎とっとこうた(すーぱーとっとこみっくす)
Remixed by BEMANI Sound Team "DJ TOTTO" feat.ななひら

ADVANCED

Level: 5
BPM: 140
Notes: 368

1
口口口口 |----|
口口口口 |----|
口口口口 |----|
口口口口 |----|
2
口口口口 |①---|
④③口③ |②---|
口④口口 |③---|
①②①② |--④-|
3
①口口口 |--①-|
口①口② |----|
口口口③ |②---|
口口口口 |③---|
4
口口口口 |①---|
③口③④ |②---|
口口④口 |③---|
②①②① |--④-|
5
口口口① |--①-|
②口①口 |----|
③口口口 |②---|
口口口口 |③---|
6
口口口口 |①---|
④③口③ |②---|
口④口口 |③---|
①②①② |--④-|
7
①口口② |--①-|
口①口③ |----|
口口口口 |②---|
口口口口 |③---|
8
口①④口 |①-②-|
口⑤②口 |③---|
口③⑥口 |④-⑤-|
口口口口 |⑥---|
9
口①④口 |①-②-|
口⑤②口 |③---|
口③⑥口 |④-⑤-|
口口口口 |⑥---|
10
①⑥口① |①---|
口口⑤口 |②---|
口④口口 |③-④-|
②口③② |⑤-⑥-|
11
①口口① |①---|
口口口口 |②-③-|
口口②口 |----|
口③口口 |----|
12
①口⑥① |①---|
口⑤口口 |②---|
口口④口 |③-④-|
②③口② |⑤-⑥-|
13
①口口① |①---|
口口口口 |②-③-|
口②口口 |----|
口口③口 |----|
14
口口口口 |①---|
②①②① |----|
口②①口 |②---|
口口口口 |----|
15
口口口口 |①---|
②①②① |----|
口②①口 |②---|
口口口口 |----|
16
①口口① |①---|
口口口口 |----|
③口口③ |②---|
口②②口 |③---|
17
口口口口 |①---|
口①①口 |----|
口口口口 |----|
口口口口 |----|
18
①⑥口① |①---|
口口⑤口 |②---|
口④口口 |③-④-|
②口③② |⑤-⑥-|
19
①口口① |①---|
口口口口 |②-③-|
口口②口 |----|
口③口口 |----|
20
口口⑤① |①-②-|
②⑥口口 |③-④-|
口口⑦③ |⑤-⑥-|
④⑧口口 |⑦-⑧-|
21
口口口① |①-②-|
②⑤⑤口 |③-④-|
口口口③ |⑤---|
④口口口 |----|
22
①口口① |①---|
口⑤④口 |②---|
口⑥③口 |③-④-|
②口口② |⑤-⑥-|
23
①口口① |①---|
口口口口 |②-③-|
口口②口 |----|
口③口口 |----|
24
①口口① |①---|
口④⑤口 |②---|
口③⑥口 |③-④-|
②口口② |⑤-⑥-|
25
①口口① |①---|
口口口口 |②-③-|
口②口口 |----|
口口③口 |----|
26
口口口口 |①---|
②①②① |----|
口②①口 |②---|
口口口口 |----|
27
口口口口 |①---|
②①②① |----|
口②①口 |②---|
口口口口 |----|
28
①口口① |①---|
口口口口 |----|
③口口③ |②---|
口②②口 |③---|
29
口口口口 |①---|
口①①口 |----|
口口口口 |----|
口口口口 |----|
30
⑦⑥⑤④ |①-②-|
⑧口口③ |③-④-|
口口①② |⑤-⑥-|
口口口口 |⑦-⑧-|
31
口⑧⑦⑥ |①-②-|
口口口⑤ |③-④-|
①②③④ |⑤-⑥-|
口口口口 |⑦-⑧-|
32
口口口口 |①---|
口①①口 |----|
口②②口 |②---|
口口口口 |----|
33
口口口口 |①---|
②③③② |----|
口口口口 |②---|
口①①口 |③---|
34
口口口口 |①---|
口口口② |----|
口口口口 |②---|
①口口① |----|
35
口口口口 |①---|
②口口口 |----|
口①①口 |②---|
①口口① |----|
36
口口口口 |①---|
②口口口 |----|
口口口口 |②---|
①口口① |----|
37
口口口口 |①---|
口口口② |----|
口①①口 |②---|
①口口① |----|
38
口口口口 |①---|
口口口② |----|
口口口口 |②---|
①口口① |----|
39
口口口口 |①---|
②口口口 |----|
口①①口 |②---|
①口口① |----|
40
口口口口 |①---|
口口口口 |----|
②口口② |②---|
①口口① |----|
41
口①①口 |①---|
①口口① |----|
口口口口 |----|
口口口口 |----|
42
口口口口 |①---|
④③口③ |②---|
口④口口 |③---|
①②①② |--④-|
43
①口口口 |--①-|
口①口② |----|
口口口③ |②---|
口口口口 |③---|
44
口口口口 |①---|
③口③④ |②---|
口口④口 |③---|
②①②① |--④-|
45
口口口① |--①-|
②口①口 |----|
③口口口 |②---|
口口口口 |③---|
46
口口口口 |①---|
④③口③ |②---|
口④口口 |③---|
①②①② |--④-|
47
①口口② |--①-|
口①口③ |----|
口口口口 |②---|
口口口口 |③---|
48
口①④口 |①-②-|
口⑤②口 |③---|
口③⑥口 |④-⑤-|
口口口口 |⑥---|
49
口①④口 |①-②-|
口⑤②口 |③---|
口③⑥口 |④-⑤-|
口口口口 |⑥---|
50
①口口① |①---|
口③③口 |②---|
口③③口 |③---|
②口口② |----|
51
①口口① |①---|
口口口口 |②-③-|
口口②口 |----|
口③口口 |----|
52
①口口① |①---|
口③③口 |②---|
口③③口 |③---|
②口口② |----|
53
①口口① |①---|
口口口口 |②-③-|
口②口口 |----|
口口③口 |----|
54
口口口口 |①---|
②①②① |----|
口②①口 |②---|
口口口口 |----|
55
口口口口 |①---|
②①②① |----|
口②①口 |②---|
口口口口 |----|
56
①口口① |①---|
口口口口 |----|
③口口③ |②---|
口②②口 |③---|
57
口口口口 |①---|
口①①口 |----|
口口口口 |----|
口口口口 |----|
58
①口口① |①---|
口③③口 |②---|
口③③口 |③---|
②口口② |----|
59
①口口① |①---|
口口口口 |②-③-|
口口②口 |----|
口③口口 |----|
60
口口⑤① |①-②-|
②⑥口口 |③-④-|
口口⑦③ |⑤-⑥-|
④⑧口口 |⑦-⑧-|
61
口口口① |①-②-|
②⑤⑤口 |③-④-|
口口口③ |⑤---|
④⑥⑥口 |⑥---|
62
③③①① |①---|
口口④口 |②---|
②②④口 |③---|
口口口口 |④---|
63
口口口口 |①---|
①①③③ |②---|
口④口口 |③---|
口④②② |④---|
64
口①口① |①---|
②口②口 |②---|
口③口③ |③---|
④口④口 |④---|
65
口①①口 |①---|
①口口① |----|
口口口口 |----|
口口口口 |----|

accuracy: 99.5%
最終更新:2024年09月08日 17:02