アットウィキロゴ
ハム太郎とっとこうた(すーぱーとっとこみっくす)
Remixed by BEMANI Sound Team "DJ TOTTO" feat.ななひら

EXTREME

Level: 8
BPM: 140
Notes: 671

1
口口口口 |----|
口口口口 |----|
口口口口 |----|
口口口口 |----|
2
①⑦⑧① |①-②③|
口⑦⑧⑥ |④⑤⑥-|
⑤⑨口④ |⑦-⑧-|
⑨③②口 |--⑨-|
3
口口口口 |--①-|
口口口口 |--②③|
口口①口
口③②①

口口④口
⑤口口口
口口⑥口 |④-⑤-|
⑦口口口 |⑥-⑦-|
4
①⑧⑦① |①-②③|
⑥⑧⑦口 |④⑤⑥-|
④口⑨⑤ |⑦-⑧-|
口②③⑨ |--⑨-|
5
口口口口 |--①-|
口口口口 |--②③|
口①口口
①②③口

口④口口
口口口⑤
口⑥口口 |④-⑤-|
口口口⑦ |⑥-⑦-|
6
①口口① |①-②③|
口口口⑥ |④⑤⑥-|
⑤口口④
口③②口

⑨⑦⑧口
口⑦⑧口
口⑩口口 |⑦-⑧-|
⑩口口口 |⑨-⑩-|
7
口口口① |①-②-|
口③口口 |③-④⑤|
口口②口
口⑤④②

口⑥⑥口
⑦口口⑦
口⑧⑧口 |⑥-⑦-|
⑨口口⑨ |⑧-⑨-|
8
⑪⑤⑤⑪ |①②③④|
⑩②③⑦ |⑤-⑥-|
④⑧⑨① |⑦⑧⑨⑩|
⑫⑥⑥⑫ |⑪-⑫-|
9
⑪⑤⑤⑪ |①②③④|
⑩②③⑦ |⑤-⑥-|
④⑧⑨① |⑦⑧⑨⑩|
口⑥⑥口 |⑪---|
10
⑥口口③ |①---|
⑥口口③ |②---|
②④⑤① |③-④-|
口④⑤口 |⑤-⑥-|
11
⑥口②⑤ |①-②-|
口①①口 |③-④-|
①③④① |--⑤-|
⑦口口口 |⑥-⑦-|
12
②口口⑤ |①---|
②口口⑤ |----|
口④③口 |②-③-|
口④③① |④-⑤-|
13
口②口口 |①-②-|
口①①口 |③-④-|
①口口① |----|
④口口③ |----|
14
②口口口 |①---|
口①口① |--②-|
口①①①
口口①口

口口口口
⑥⑤③④
口口口口 |③-④-|
口口口口 |⑤-⑥-|
15
④口口④ |①---|
③口口③ |②---|
②口口② |③---|
口①①口 |④---|
16
口口口② |①---|
口①①口 |--②-|
①口口①
口①①口

口口口口
③口口口
口口口④ |③-④-|
⑤口口⑥ |⑤-⑥-|
17
口口口口 |①---|
③③口口 |②-③-|
口口②②
口①①口

口口④④
口口口口
口口口口 |④-⑤-|
⑤⑥⑦口 |⑥-⑦-|
18
⑤口口② |①---|
⑤口口② |----|
口③④口 |②-③-|
口③④① |④-⑤-|
19
口口②口 |①-②-|
口①①口 |③-④-|
①口口① |----|
口③④口 |----|
20
④口口② |①-②-|
③④②① |③-④-|
口③①口
口口口口

口口口口
⑧口口⑥
⑦⑧⑥⑤ |⑤-⑥-|
口⑦⑤口 |⑦-⑧-|
21
③①①③ |①-②-|
口口口口 |③-④-|
口口口口
②④④②

口口口口
⑤⑥⑥⑤
口⑤⑤口 |⑤---|
⑥口口⑥ |⑥---|
22
口①①口 |①---|
口口口口 |②---|
口口口口
口②②口

口口⑥⑤
③口口④
④口口③ |③-④-|
⑤⑥口口 |⑤-⑥-|
23
②①口口 |①-②-|
③⑦口④ |③-④-|
④⑥⑤③ |--⑤-|
口口①② |⑥-⑦-|
24
④⑤口口 |①---|
③口①② |----|
②口口③ |②-③-|
口口⑤④ |④-⑤-|
25
口口①② |①-②-|
④口口③ |③-④-|
③口口④ |----|
②①口口 |----|
26
②口口口 |①---|
口①口① |--②-|
口①①①
口口①口

口口口口
⑥⑤③④
口口口口 |③-④-|
口口口口 |⑤-⑥-|
27
④口口④ |①---|
③口口③ |②---|
②口口② |③---|
口①①口 |④---|
28
口口口② |①---|
口①①口 |--②-|
①口口①
口①①口

口口口口
③口口口
口口口④ |③-④-|
⑤口口⑥ |⑤-⑥-|
29
④④口口 |①---|
②⑥⑤③ |②-③-|
②⑦口③ |④-⑤-|
口①①口 |⑥-⑦-|
30
⑦⑥⑤④ |①-②-|
⑧口口③ |③-④-|
口口①② |⑤-⑥-|
口口口口 |⑦-⑧-|
31
口口口⑧ |①-②-|
口口口⑦ |③-④-|
①口口⑥ |⑤-⑥-|
②③④⑤ |⑦-⑧-|
32
③②①口 |①-②-|
④口⑤口 |③-④-|
⑤①口口 |⑤-⑥-|
⑥⑦⑧口 |⑦-⑧-|
33
口口⑤④ |①-②-|
口①口③ |③-④-|
口口⑤② |⑤---|
口⑥⑥① |⑥---|
34
①①口口 |①---|
口口口② |----|
口口口口 |②---|
口口③③ |③---|
35
①口①② |①---|
①①①口 |②---|
①①①口 |③---|
口③口口 |----|
36
口口①① |①---|
②口口口 |----|
口口口口 |②---|
③③口口 |③---|
37
②①口① |①---|
口①①① |②---|
口①①① |③---|
口口③口 |----|
38
①①口口 |①---|
口口口② |----|
口口口口 |②---|
口口③③ |③---|
39
①口①② |①---|
①①①口 |②---|
①①①口 |③---|
口③口口 |----|
40
口口①① |①---|
②口口口 |----|
口口口口 |②---|
③③口口 |③---|
41
口①口① |①---|
口①①① |----|
口①①① |----|
口口口口 |----|
42
①⑦⑧① |①-②③|
口⑦⑧⑥ |④⑤⑥-|
⑤⑨口④ |⑦-⑧-|
⑨③②口 |--⑨-|
43
口口口口 |--①-|
口口口口 |--②③|
口口①口
口③②①

口口④口
⑤口口口
口口⑥口 |④-⑤-|
⑦口口口 |⑥-⑦-|
44
①⑧⑦① |①-②③|
⑥⑧⑦口 |④⑤⑥-|
④口⑨⑤ |⑦-⑧-|
口②③⑨ |--⑨-|
45
口口口口 |--①-|
口口口口 |--②③|
口①口口
①②③口

口④口口
口口口⑤
口⑥口口 |④-⑤-|
口口口⑦ |⑥-⑦-|
46
①口口① |①-②③|
口口口⑥ |④⑤⑥-|
⑤口口④
口③②口

⑨⑦⑧口
口⑦⑧口
口⑩口口 |⑦-⑧-|
⑩口口口 |⑨-⑩-|
47
口口口① |①-②-|
口③口口 |③-④⑤|
口口②口
口⑤④②

口⑥⑥口
⑦口口⑦
口⑧⑧口 |⑥-⑦-|
⑨口口⑨ |⑧-⑨-|
48
⑪⑤⑤⑪ |①②③④|
⑩②③⑦ |⑤-⑥-|
④⑧⑨① |⑦⑧⑨⑩|
⑫⑥⑥⑫ |⑪-⑫-|
49
⑪⑤⑤⑪ |①②③④|
⑩②③⑦ |⑤-⑥-|
④⑧⑨① |⑦⑧⑨⑩|
口⑥⑥口 |⑪---|
50
⑥口口口 |①---|
④口口⑤ |②---|
②③③① |③-④-|
口③③口 |⑤-⑥-|
51
⑥口②⑤ |①-②-|
口①①口 |③-④-|
①③④① |--⑤-|
⑦口口口 |⑥-⑦-|
52
口口口⑤ |①---|
④口口③ |----|
口②②口 |②-③-|
口②②① |④-⑤-|
53
口②口口 |①-②-|
口①①口 |③-④-|
①口口① |----|
④口口③ |----|
54
②口口口 |①---|
口①口① |--②-|
口①①①
口口①口

口口口口
⑥⑤③④
口口口口 |③-④-|
口口口口 |⑤-⑥-|
55
④口口④ |①---|
③口口③ |②---|
②口口② |③---|
口①①口 |④---|
56
口口口② |①---|
口①①口 |--②-|
①口口①
口①①口

口口口口
③口口口
口口口④ |③-④-|
⑤口口⑥ |⑤-⑥-|
57
口口口口 |①---|
③③口口 |②-③-|
口口②②
口①①口

口口④④
口口口口
口口口口 |④-⑤-|
⑤⑥⑦口 |⑥-⑦-|
58
⑤口口口 |①---|
③口口④ |----|
口②②口 |②-③-|
口②②① |④-⑤-|
59
口口②口 |①-②-|
口①①口 |③-④-|
①③④① |----|
口口口口 |----|
60
④口口② |①-②-|
③④②① |③-④-|
口③①口
口口口口

口口口口
⑧口口⑥
⑦⑧⑥⑤ |⑤-⑥-|
口⑦⑤口 |⑦-⑧-|
61
③①①③ |①-②-|
口口口口 |③-④-|
口口口口
②④④②

口口口口
⑤⑥⑥⑤
口⑤⑤口 |⑤---|
⑥口口⑥ |⑥---|
62
②②①① |①-②-|
⑧口⑦⑨ |③④⑤⑥|
⑥⑩⑩⑤ |⑦⑧⑨-|
⑩④③⑩ |⑩---|
63
①①②② |①-②-|
⑨⑦口⑧ |③④⑤⑥|
⑤⑩⑩⑥ |⑦⑧⑨-|
⑩③④⑩ |⑩---|
64
⑧口口⑦ |①②③④|
⑥④③⑤ |⑤⑥⑦⑧|
口口口口
口②①口

口口口口
口口口口
⑩⑯⑮⑨ |⑨⑩⑪⑫|
⑫⑭⑬⑪ |⑬⑭⑮⑯|
65
口①①口 |①---|
①口口① |----|
口口口口 |----|
口口口口 |----|

accuracy: 99.5%
最終更新:2024年09月08日 17:02