アットウィキロゴ
[A]ddiction
EVO+

BASIC

Level: 4
BPM : 164
Notes: 268

1
口口口口 |----|
口口口口 |----|
口口口口 |----|
口口口口 |----|
2
口口口口 |①---|
口口口口 |②---|
①②③④ |③---|
口口口口 |④---|
3
口口口口 |①---|
④③②① |②---|
口口口口 |③---|
口口口口 |④---|
4
口口口口 |①---|
口口口口 |②---|
①②③④ |③---|
口口口口 |④---|
5
口口口口 |①---|
④③②① |②---|
口口口口 |③---|
口口口口 |④---|
6
口口口口 |①---|
②口口口 |----|
口①①口 |②---|
口口口口 |----|
7
口口口口 |①---|
口口口① |----|
②口口口 |②---|
口口口口 |----|
8
口口口口 |①---|
口口口口 |----|
口口口① |②---|
②口口口 |----|
9
口口口口 |①---|
口②②口 |----|
口口口口 |②---|
口口口① |----|
10
口口口口 |①---|
②口口口 |----|
口①①口 |②---|
口口口口 |----|
11
口口口口 |①---|
口口口① |----|
②口口口 |②---|
口口口口 |----|
12
口口口口 |①---|
口口口口 |----|
口口口① |②---|
②口口口 |----|
13
口口口口 |①---|
口②②口 |----|
口口口口 |②---|
口口口① |----|
14
口①口口 |①---|
口②口口 |----|
口口口口 |②---|
口口口口 |----|
15
口口口口 |①---|
口口口口 |----|
口①口口 |②---|
口②口口 |----|
16
口口①口 |①---|
口口②口 |----|
口口口口 |②---|
口口口口 |----|
17
口口口口 |①---|
口口口口 |----|
口口①口 |②---|
口口②口 |----|
18
口口口口 |①---|
口口口口 |----|
口①①口 |----|
口口口口 |----|
19
口口口口 |①---|
口①口口 |----|
口口口口 |----|
口口口口 |----|
20
口口口口 |①---|
口口①口 |----|
口口口口 |----|
口口口口 |----|
21
口口口口 |①---|
口口口口 |----|
口①①口 |----|
口口口口 |----|
22
①口口① |①---|
口口口口 |----|
口口口口 |----|
口口口口 |----|
23
口口口口 |①---|
口口口口 |----|
口①口口 |----|
口口口口 |----|
24
口口口口 |①---|
口口口口 |----|
口口①口 |----|
口口口口 |----|
25
口口口口 |①---|
口口口口 |----|
①口口口 |----|
口口口口 |----|
26
口口口口 |①---|
口口口口 |----|
口口口① |----|
口口口口 |----|
27
口口口口 |①---|
口口口口 |----|
口口口口 |----|
口①口口 |----|
28
口口口口 |①---|
口口口口 |----|
口口口口 |----|
口口①口 |----|
29
口口口口 |①---|
口口口口 |----|
①①①① |----|
口口口口 |----|
30
①①口口 |①---|
口②③口 |②---|
口④口口 |③---|
口口口口 |④---|
31
口口口口 |①---|
口口口③ |②---|
口口①④ |③---|
口②口口 |④---|
32
口口①① |①---|
口③②口 |②---|
口口④口 |③---|
口口口口 |④---|
33
口口口口 |①---|
③口口口 |②---|
④①口口 |③---|
口口②口 |④---|
34
①①口口 |①---|
④口口④ |②---|
口②③口 |③---|
口口口口 |④---|
35
①①①① |①---|
口口口口 |②---|
口③②④ |③---|
口口口口 |④---|
36
口口口口 |①---|
口口口口 |②---|
①口口口 |③---|
口③②④ |④---|
37
口口口口 |①---|
②口口口 |----|
③口口口 |②---|
①口口口 |③---|
38
①①口口 |①---|
口②③口 |②---|
口④口口 |③---|
口口口口 |④---|
39
口口口口 |①---|
口口口③ |②---|
口口①④ |③---|
口②口口 |④---|
40
口口①① |①---|
口③②口 |②---|
口口④口 |③---|
口口口口 |④---|
41
口口口口 |①---|
③口口口 |②---|
④①口口 |③---|
口口②口 |④---|
42
①①口口 |①---|
④口口④ |②---|
口②③口 |③---|
口口口口 |④---|
43
①①①① |①---|
口口口口 |②---|
口③②④ |③---|
口口口口 |④---|
44
口口口口 |①---|
口口口口 |②---|
①口口口 |③---|
口③②④ |④---|
45
口口口口 |①---|
口口口口 |②---|
口③②④ |③---|
①口口口 |④---|
46
口口口口 |①---|
口②口口 |----|
①口口口 |②---|
口口口口 |----|
47
口口口口 |①---|
口口①口 |----|
口口口口 |----|
口口口口 |----|
48
口口口口 |----|
口口口口 |----|
口口口口 |----|
口口口口 |----|
49
口口口口 |①---|
①口口① |----|
口口口口 |----|
口口口口 |----|
50
①②③④ |①---|
口口口口 |②---|
口口口口 |③---|
口口口口 |④---|
51
口口口口 |①---|
④③②① |②---|
口口口口 |③---|
口口口口 |④---|
52
口口口口 |①---|
口口口口 |②---|
①②③④ |③---|
口口口口 |④---|
53
口口口口 |①---|
口口口口 |②---|
口口口口 |③---|
④③②① |④---|
54
口口口口 |①---|
口口口口 |②---|
①②③④ |③---|
口口口口 |④---|
55
口口口口 |①---|
④③②① |②---|
口口口口 |③---|
口口口口 |④---|
56
①②③④ |①---|
口口口口 |②---|
口口口口 |③---|
口口口口 |④---|
57
口口口口 |①---|
④③②① |②---|
口口口口 |③---|
口口口口 |④---|
58
口①①口 |①---|
口口口口 |----|
口口口口 |----|
口口口口 |----|
59
口口口口 |①---|
口口口口 |----|
口①口口 |----|
口口口口 |----|
60
口口口口 |①---|
口口口口 |----|
口口①口 |----|
口口口口 |----|
61
口口口口 |①---|
口口口口 |----|
①口口口 |----|
口口口口 |----|
62
口口口口 |①---|
口口口口 |----|
口口口① |----|
口口口口 |----|
63
口口口口 |①---|
口口口口 |----|
口口口口 |----|
口①口口 |----|
64
口口口口 |①---|
口口口口 |----|
口口口口 |----|
口口①口 |----|
65
口口口口 |①---|
口口口口 |----|
①①①① |----|
口口口口 |----|
66
口口口口 |----|
①口口口 |----|
②口口口 |①---|
口口口口 |②---|
67
①①口口 |①---|
口②③口 |②---|
口④口口 |③---|
口口口口 |④---|
68
口口口口 |①---|
口口口③ |②---|
口口①④ |③---|
口②口口 |④---|
69
口口①① |①---|
口③②口 |②---|
口口④口 |③---|
口口口口 |④---|
70
口口口口 |①---|
③口口口 |②---|
④①口口 |③---|
口口②口 |④---|
71
①①口口 |①---|
④口口④ |②---|
口②③口 |③---|
口口口口 |④---|
72
①①①① |①---|
口口口口 |②---|
口③②④ |③---|
口口口口 |④---|
73
口口口口 |①---|
口口口口 |②---|
①口口口 |③---|
口③②④ |④---|
74
口口口口 |①---|
②口口口 |----|
③口口口 |②---|
①口口口 |③---|
75
①①口口 |①---|
口②③口 |②---|
口④口口 |③---|
口口口口 |④---|
76
口口口口 |①---|
口口口③ |②---|
口口①④ |③---|
口②口口 |④---|
77
口口①① |①---|
口③②口 |②---|
口口④口 |③---|
口口口口 |④---|
78
口口口口 |①---|
③口口口 |②---|
④①口口 |③---|
口口②口 |④---|
79
①①口口 |①---|
④口口④ |②---|
口②③口 |③---|
口口口口 |④---|
80
①①①① |①---|
口口口口 |②---|
口③②④ |③---|
口口口口 |④---|
81
口口口口 |①---|
口口口口 |②---|
①口口口 |③---|
口③②④ |④---|
82
口口口口 |①---|
口口口口 |②---|
口③②④ |③---|
①口口口 |④---|
83
口口口口 |①---|
口口口口 |----|
①口口口 |----|
口口口口 |----|

accuracy: 99.5%
最終更新:2023年01月03日 03:16