アットウィキロゴ
[A]ddiction
EVO+

ADVANCED

Level: 6
BPM : 164
Notes: 574

1
口口口口 |----|
口口口口 |----|
口口口口 |----|
口口口口 |----|
2
①口口① |①---|
口②口口 |②---|
口口③口 |③---|
口④口口 |④---|
3
口④口口 |①---|
口口③口 |②---|
口②口口 |③---|
口口①口 |④---|
4
口口①口 |①---|
口②口口 |②---|
口口③口 |③---|
口④口口 |④---|
5
口④口口 |①---|
口口③口 |②---|
口②口口 |③---|
口口①口 |④---|
6
①口口① |①---|
口⑥⑤④ |②-③-|
口②③口 |--④-|
口口口口 |⑤-⑥-|
7
①口口口 |①---|
口⑥⑤④ |②-③-|
口②③口 |--④-|
口口口口 |⑤-⑥-|
8
①⑥口口 |①---|
口口⑤④ |②-③-|
口②③口 |--④-|
口口口口 |⑤-⑥-|
9
①口口② |①---|
口口口口 |②---|
口口口口 |③---|
口④口③ |④---|
10
①口口① |①---|
④⑤⑥口 |②-③-|
口③②口 |--④-|
口口口口 |⑤-⑥-|
11
口口口① |①---|
④⑤⑥口 |②-③-|
口③②口 |--④-|
口口口口 |⑤-⑥-|
12
①②口口 |①-②-|
口⑤口口 |③-④-|
口⑥④③ |--⑤-|
口⑦口口 |⑥-⑦-|
13
口⑤⑤口 |①-②-|
④口口③ |③-④-|
②口口① |⑤---|
口⑥⑥口 |⑥---|
14
口口口口 |①-②-|
⑦①②⑧ |③-④-|
⑤③④⑥ |⑤-⑥-|
口口口口 |⑦-⑧-|
15
口①④⑤ |①-②-|
口口口⑥ |③-④-|
口口口⑦ |--⑤-|
口③②口 |⑥-⑦-|
16
口口口口 |①-②-|
⑦①②⑧ |③-④-|
⑤③④⑥ |⑤-⑥-|
口口口口 |⑦-⑧-|
17
口①④口 |①-②-|
口⑥口口 |③-④-|
⑦口⑤口 |--⑤-|
口③②口 |⑥-⑦-|
18
①口④① |①-②-|
口口口③ |③-④-|
口口口②
口口口口

口口口口
口口⑥口
口⑤口⑦ |--⑤-|
口口口口 |⑥-⑦-|
19
①④口口 |①-②-|
③口口口 |③-④-|
②口口口
口口口口

⑦口⑥口
口口口口
口⑤口口 |--⑤-|
口口口口 |⑥-⑦-|
20
口口口口 |①-②-|
②口口口 |③-④-|
口④口①
口口③口

口⑥口⑤
⑧口口口
口口⑦口 |⑤-⑥-|
口口口口 |⑦-⑧-|
21
口口②口 |①--②|
口③②① |--③-|
口③口① |--④-|
口④⑤口 |⑤---|
22
口口口口 |①---|
①口口① |----|
④⑤口口 |②-③-|
②③口口 |④-⑤-|
23
口口口② |①---|
①口③口 |②---|
口④口口 |③---|
口口口口 |④---|
24
口口口口 |①---|
口口口⑥ |--②-|
口口⑤④ |③-④-|
①口③② |⑤-⑥-|
25
②口口口 |①---|
③口①口 |②---|
口④口口 |③---|
口口口口 |④---|
26
口口①① |①---|
口口口口 |--②-|
口口口口
口口②口

口⑥⑤口
口口口④
口口口③ |③-④-|
口口口口 |⑤-⑥-|
27
口口口口 |①---|
口①②口 |②---|
④②①口 |③---|
口③③口 |--④-|
28
口④口口 |①---|
口②③口 |②---|
口③②① |③---|
口口④口 |④---|
29
口口①口 |①---|
口口③口 |----|
口②口④ |②-③-|
口①口口 |④---|
30
③口①① |①---|
口口口口 |②-③-|
口口②口
①①口口

口口⑥口
⑦口口④
口⑤口口 |④-⑤-|
口口口口 |⑥-⑦-|
31
口口口③ |①-②-|
口⑥口④ |③-④-|
⑦口⑤口 |⑤-⑥-|
口②①口 |⑦---|
32
①①③口 |①---|
④⑥口口 |②-③-|
口口⑤⑦ |④-⑤-|
口②①① |⑥-⑦-|
33
③口②口 |①-②-|
口口⑤口 |③---|
口④口⑥ |④-⑤-|
口①口口 |⑥---|
34
⑥⑥①① |①---|
④口口⑤ |②-③-|
口②③口 |④-⑤-|
①①⑥⑥ |⑥---|
35
口口②① |①---|
口③①口 |②-③-|
口①口口
①口口口

口口口口
口口口口
⑥⑥④口 |④-⑤-|
口⑤口口 |⑥---|
36
①①口口 |①---|
⑤④③② |②-③-|
口口口口 |④-⑤-|
⑥⑦口口 |⑥-⑦-|
37
口口口口 |①--②|
口口④② |----|
口③口⑤ |③-④-|
口口①口 |⑤---|
38
③口①① |①---|
口口口口 |②-③-|
口口②口
①①口口

口口⑥口
⑦口口④
口⑤口口 |④-⑤-|
口口口口 |⑥-⑦-|
39
口口口③ |①-②-|
口⑥口④ |③-④-|
⑦口⑤口 |⑤-⑥-|
口②①口 |⑦---|
40
①①③口 |①---|
④⑥口口 |②-③-|
口口⑤⑦ |④-⑤-|
口②①① |⑥-⑦-|
41
③口②口 |①-②-|
口口⑤口 |③---|
口④口⑥ |④-⑤-|
口①口口 |⑥---|
42
⑥⑥①① |①---|
④口口⑤ |②-③-|
口②③口 |④-⑤-|
①①⑥⑥ |⑥---|
43
口口②① |①---|
口③①口 |②-③-|
口①口口
①口口口

口口口口
口口口口
⑥⑥④口 |④-⑤-|
口⑤口口 |⑥---|
44
①①口口 |①---|
⑤④③② |②-③-|
口口口口 |④-⑤-|
⑥⑦口口 |⑥-⑦-|
45
口⑧⑦口 |①-②-|
口⑥⑤口 |③-④-|
口④③口 |⑤-⑥-|
口口①② |⑦-⑧-|
46
①口口① |①---|
①口口① |②---|
②口口口
口口口口

口口口口
④口口口
口口口③ |③---|
口口口口 |④---|
47
口口口口 |①---|
口②③① |②---|
口④口口 |③---|
口口口口 |④---|
48
④口④口 |①---|
口④口口 |②---|
②④①③ |③---|
口口口口 |④---|
49
口口口口 |----|
口口口口 |----|
口口口口 |----|
口口口口 |----|
50
④②④② |①---|
口口口口 |②---|
口口③口 |③---|
口①①口 |④---|
51
④②④② |①---|
口口口口 |②---|
口口口口 |③---|
口①③口 |④---|
52
④②④② |①---|
口口口口 |②---|
口口口口 |③---|
口①③口 |④---|
53
口②口② |①---|
口⑤④③ |②---|
口⑤④③ |③-④-|
口①口口 |⑤---|
54
②口口④ |①---|
口口口口 |②---|
②口口④ |③---|
口①③口 |④---|
55
②口口④ |①---|
口口口口 |②---|
②口口④ |③---|
口①③口 |④---|
56
②口口④ |①---|
②口口④ |②---|
口口口口 |③---|
口①③口 |④---|
57
②口口口 |①---|
②④③口 |②---|
口④③口 |--③-|
口①口口 |④---|
58
口口口① |①---|
口口口口 |----|
④⑤口口 |②-③-|
②③口口 |④-⑤-|
59
口口口② |①---|
①口③口 |②---|
口④口口 |③---|
口口口口 |④---|
60
口口口口 |①---|
口口口⑥ |--②-|
口口⑤④ |③-④-|
①口③② |⑤-⑥-|
61
②口口口 |①---|
③口①口 |②---|
口④口口 |③---|
口口口口 |④---|
62
口口①① |①---|
口口口口 |--②-|
口口口口
口口②口

口⑥⑤口
口口口④
口口口③ |③-④-|
口口口口 |⑤-⑥-|
63
口口口口 |①---|
口①②口 |②---|
④②①口 |③---|
口③③口 |--④-|
64
口④口口 |①---|
口②③口 |②---|
口③②① |③---|
口口④口 |④---|
65
口口①口 |①---|
口口口口 |----|
口口口口 |----|
口①口口 |----|
66
口口口口 |----|
口②口口 |----|
③口①口 |①-②-|
口口口口 |③---|
67
①①口③ |①---|
口口口口 |②-③-|
口②口口
口口①①

口⑥口口
④口口⑦
口口⑤口 |④-⑤-|
口口口口 |⑥-⑦-|
68
③口口口 |①-②-|
④口⑥口 |③-④-|
口⑤口⑦ |⑤-⑥-|
口①②口 |⑦---|
69
口③①① |①---|
口口⑥④ |②-③-|
⑦⑤口口 |④-⑤-|
①①②口 |⑥-⑦-|
70
口②口③ |①-②-|
口⑤口口 |③---|
⑥口④口 |④-⑤-|
口口①口 |⑥---|
71
①①⑥⑥ |①---|
⑤口口④ |②-③-|
口③②口 |④-⑤-|
⑥⑥①① |⑥---|
72
①②口口 |①---|
口①③口 |②-③-|
口口①口
口口口①

口口口口
口口口口
口④⑥⑥ |④-⑤-|
口口⑤口 |⑥---|
73
口口①① |①---|
②③④⑤ |②-③-|
口口口口 |④-⑤-|
口口⑦⑥ |⑥-⑦-|
74
口口口口 |①--②|
②④口口 |----|
⑤口③口 |③-④-|
口①口口 |⑤---|
75
①①口③ |①---|
口口口口 |②-③-|
口②口口
口口①①

口⑥口口
④口口⑦
口口⑤口 |④-⑤-|
口口口口 |⑥-⑦-|
76
③口口口 |①-②-|
④口⑥口 |③-④-|
口⑤口⑦ |⑤-⑥-|
口①②口 |⑦---|
77
口③①① |①---|
口口⑥④ |②-③-|
⑦⑤口口 |④-⑤-|
①①②口 |⑥-⑦-|
78
口②口③ |①-②-|
口⑤口口 |③---|
⑥口④口 |④-⑤-|
口口①口 |⑥---|
79
①①⑥⑥ |①---|
⑤口口④ |②-③-|
口③②口 |④-⑤-|
⑥⑥①① |⑥---|
80
①②口口 |①---|
口①③口 |②-③-|
口口①口
口口口①

口口口口
口口口口
口④⑥⑥ |④-⑤-|
口口⑤口 |⑥---|
81
口口①① |①---|
②③④⑤ |②-③-|
口口口口 |④-⑤-|
口口⑦⑥ |⑥-⑦-|
82
口⑦⑧口 |①-②-|
口⑤⑥口 |③-④-|
口③④口 |⑤-⑥-|
②①口口 |⑦-⑧-|
83
①口口① |①---|
①口口① |--②-|
口口②口 |----|
口口口口 |----|

accuracy: 99.5%
最終更新:2023年01月03日 03:17