アットウィキロゴ
[A]ddiction
EVO+

EXTREME

Level: 9.2
BPM : 164
Notes: 840

1
口口口口 |----|
口口口口 |----|
口口口口 |----|
口口口口 |----|
2
①④口① |①---|
①口③① |②---|
①②口① |③---|
口口口口 |④---|
3
④口②口 |①---|
口③口① |②---|
口口口口 |③---|
口口口口 |④---|
4
口④口口 |①---|
口口③口 |②---|
①②口① |③---|
口口口口 |④---|
5
口④①口 |①---|
口②③口 |②---|
口口口口 |③---|
口口口口 |④---|
6
①口口① |①---|
①口口① |②-③-|
①口口①
口②②③

口口口⑤
口口④口
口口口⑥ |--④-|
口口口口 |⑤-⑥-|
7
口口口⑤ |①---|
①口④① |②-③-|
③②②⑥ |--④-|
口口口口 |⑤-⑥-|
8
⑤口口口 |①---|
①④口① |②-③-|
⑥口口口 |--④-|
口②②③ |⑤-⑥-|
9
口③②口 |①---|
①③②① |②---|
口④口口 |③---|
口口口口 |④---|
10
①口②① |①---|
①口口① |②-③-|
①口③①
口口③口

口口口口
⑥⑥⑥口
口⑤口口 |--④-|
④口口口 |⑤-⑥-|
11
①口①③ |①---|
⑥口口③ |②-③-|
口口④口 |--④-|
口⑤②口 |⑤-⑥-|
12
②④①③ |①-②-|
口口口口 |③-④-|
⑦①④口 |--⑤-|
③⑥⑤② |⑥-⑦-|
13
口②⑤口 |①-②-|
①⑥③口 |③-④-|
口④⑥口 |⑤---|
口⑤口口 |⑥---|
14
①口口① |①---|
①口口① |②-③-|
①②口①
口口③口

⑥口口⑦
口口⑤口
口口口口 |④-⑤-|
口④口口 |⑥-⑦-|
15
⑦③⑥口 |①-②-|
口③口④ |③-④-|
①①口口 |--⑤-|
口⑤口② |⑥-⑦-|
16
口口⑦③ |①-②-|
口②⑤口 |③-④-|
⑥⑧口口 |⑤-⑥-|
口④①口 |⑦-⑧-|
17
②④口口 |①-②-|
口⑦口③ |③-④-|
口口⑥③ |--⑤-|
口⑤①① |⑥-⑦-|
18
①口口① |①-②-|
①⑦②① |③-④-|
①③⑥① |--⑤-|
口⑤④口 |⑥-⑦-|
19
①口口口 |①-②-|
⑤口口② |③-④-|
③口⑦口 |--⑤-|
口⑥口④ |⑥-⑦-|
20
③②②④ |①-②-|
口①①口 |③-④-|
⑤⑦口⑥ |⑤-⑥-|
口口⑧口 |⑦-⑧-|
21
①②③口 |①--②|
①②③口 |--③-|
口④⑥口 |--④-|
口口⑤口 |⑤-⑥-|
22
口口口口 |①---|
②③口口 |----|
口口⑤④ |②-③-|
口①口口 |④-⑤-|
23
①②口① |①---|
口口③口 |②---|
口④口口 |③---|
口口口口 |④---|
24
口口口口 |①---|
口口口口 |--②-|
②口口口
口口①口

口口口口
口③口口
口⑥口④ |③-④-|
口口⑤口 |⑤-⑥-|
25
口①①口 |①---|
③②②口 |②---|
口口口④ |③---|
口口口口 |④---|
26
口④④口 |①---|
③口⑤③ |--②-|
⑥②②口 |③-④-|
口①①口 |⑤-⑥-|
27
口口口口 |①---|
口③口口 |②---|
④③②① |③---|
口口口口 |--④-|
28
②口口③ |①---|
口②③① |②---|
口③②① |③---|
③④口② |④---|
29
②口口③ |①---|
④口口口 |----|
口口口④ |②-③-|
③口①② |④---|
30
口①①口 |①---|
口①①口 |②-③-|
口①②口
口③②口

④口⑥口
④口⑥口
口口口⑤ |④-⑤-|
⑦口口口 |⑥-⑦-|
31
⑤①口⑥ |①-②-|
⑦①口④ |③-④-|
④③③⑦ |⑤-⑥-|
⑥口②⑤ |⑦---|
32
口①口口 |①---|
口①口口 |②-③-|
口①③口
口①②②

⑥⑥④④
⑦口口⑤
口口口口 |④-⑤-|
口口口口 |⑥-⑦-|
33
④口口⑤ |①-②-|
⑥③③口 |③---|
口②口⑥ |④-⑤-|
⑤①①④ |⑥---|
34
⑥①①口 |①---|
⑥①①口 |②-③-|
⑥①①口 |④-⑤-|
④②③⑤ |⑥---|
35
口①①① |①---|
口①①① |②-③-|
口①③①
口②口口

口⑥口⑥
口口口口
④口口口 |④-⑤-|
④口⑤口 |⑥---|
36
口口口口 |①---|
②③口口 |②-③-|
②①口①
口①口①

⑥口口⑦
口口④⑤
口口④口 |④-⑤-|
口⑦⑥口 |⑥-⑦-|
37
口②口口 |①--②|
①②口口 |----|
①口口口
口口口口

③口口④
⑤口口口
口口口⑤ |③-④-|
④口口③ |⑤---|
38
口①①口 |①---|
口①①口 |②-③-|
口①②口
口③②口

④口⑥⑤
④口⑥口
口口口口 |④-⑤-|
⑦口口口 |⑥-⑦-|
39
⑤①口⑥ |①-②-|
⑦①口④ |③-④-|
④③③⑦ |⑤-⑥-|
⑥口②⑤ |⑦---|
40
口①口口 |①---|
口①口口 |②-③-|
口①口口
③①②②

⑤⑦口⑥
口口口④
⑦口⑥④ |④-⑤-|
口口口口 |⑥-⑦-|
41
④口③⑤ |①-②-|
⑥①①③ |③---|
口口口⑥ |④-⑤-|
⑤②②④ |⑥---|
42
⑥①①口 |①---|
⑥①①口 |②-③-|
⑥①①口 |④-⑤-|
④②③⑤ |⑥---|
43
口①①① |①---|
口①①① |②-③-|
口①③①
口②口口

口⑥口⑥
口口口口
④口口口 |④-⑤-|
④口⑤口 |⑥---|
44
口口口口 |①---|
②③口口 |②-③-|
②①口①
口①口①

⑦口口⑥
口口④⑤
口口④口 |④-⑤-|
口⑥⑦口 |⑥-⑦-|
45
口口口口 |①-②-|
口③③④ |③-④-|
①①口②
口口口口

⑥⑦⑤⑤
口口口口
⑧⑧⑧⑧ |⑤-⑥-|
口口口口 |⑦-⑧-|
46
口口口口 |①---|
③①①口 |--②-|
口口口口 |③---|
②①①④ |--④-|
47
口口口口 |①-②-|
口④口① |③④-⑤|
⑤③口②
口口口口

口口口口
⑥口⑨口
口口⑧⑩ |⑥-⑦-|
口⑦口口 |⑧⑨-⑩|
48
④口④口 |①---|
口④口① |--②-|
④口口口 |③---|
口②③口 |④---|
49
口口口口 |----|
口①①口 |----|
口口口口 |----|
口口口口 |①---|
50
①②②① |①---|
①口口① |②-③-|
①口③①
口口口口

⑥口口⑥
口口口口
⑦口口口 |④-⑤-|
口④⑤口 |⑥-⑦-|
51
⑧④④⑧ |①-②③|
⑦③口① |④-⑤-|
⑨②口⑥ |⑥-⑦-|
口⑤口口 |⑧-⑨-|
52
⑦③③⑦ |①-②-|
⑧②口口 |③-④-|
口口口⑤ |⑤-⑥-|
⑥④①口 |⑦-⑧-|
53
口④④口 |①-②③|
口③⑥口 |④-⑤-|
口②⑦口 |⑥-⑦-|
口⑤⑧① |⑧---|
54
①口③① |①---|
①口口① |②-③-|
①口口①
口②口口

⑥口口口
口④口⑦
口口口口 |④-⑤-|
口口⑤口 |⑥-⑦-|
55
口④④口 |①-②③|
口口③口 |④-⑤-|
口①②口
口⑤口口

⑧口口⑧
口⑦口口
口⑨口⑥ |⑥-⑦-|
口口口口 |⑧-⑨-|
56
口③③口 |①-②-|
②口口口 |③-④-|
口口口口
口④①口

⑦口口⑦
⑧口⑤口
⑥口口口 |⑤-⑥-|
口口口口 |⑦-⑧-|
57
口④口口 |①-②③|
口③口口 |④-⑤-|
口②⑤口
口口①口

口口⑦⑥
口口⑧口
⑨⑩口口 |⑥-⑦-⑧-|
口⑪口口 |⑨-⑩-⑪-|
58
口口口口 |①---|
②③⑤④ |----|
②口口④ |②-③-|
口口①口 |④-⑤-|
59
①②③① |①---|
口④口口 |②---|
口③②口 |③---|
口口口口 |④---|
60
口口口口 |①---|
口③①口 |--②-|
②⑥口④ |③-④-|
口口⑤口 |⑤-⑥-|
61
口①①口 |①---|
③②②口 |②---|
口口口④ |③---|
口口口口 |④---|
62
口④④口 |①---|
③口⑤③ |--②-|
⑥②②口 |③-④-|
口①①口 |⑤-⑥-|
63
口口口口 |①---|
④口口口 |②---|
④③②① |③---|
口③②① |--④-|
64
②口口③ |①---|
口②③① |②---|
口③②① |③---|
③④口② |④---|
65
口口口口 |①②③④|
①⑦⑧② |⑤⑥⑦⑧|
③⑤⑥④
口口口口

口⑨口⑩
⑪口口口
口口口口 |⑨-⑩-|
口口口口 |-⑪------|
66
②口口③ |①---|
④口口口 |----|
口口口④ |②-③-|
③口①② |④---|
67
口①①口 |①---|
口①①口 |②-③-|
口①②口
口③②口

④口⑥口
④口⑥口
口口口⑤ |④-⑤-|
⑦口口口 |⑥-⑦-|
68
⑤①口⑥ |①-②-|
⑦①口④ |③-④-|
④③③⑦ |⑤-⑥-|
⑥口②⑤ |⑦---|
69
口①口口 |①---|
口①口口 |②-③-|
口①③口
口①②②

⑥⑥④④
⑦口口⑤
口口口口 |④-⑤-|
口口口口 |⑥-⑦-|
70
④口口⑤ |①-②-|
⑥③③口 |③---|
口②口⑥ |④-⑤-|
⑤①①④ |⑥---|
71
⑥①①口 |①---|
⑥①①口 |②-③-|
⑥①①口 |④-⑤-|
④②③⑤ |⑥---|
72
口①①① |①---|
口①①① |②-③-|
口①③①
口②口口

口⑥口⑥
口口口口
④口口口 |④-⑤-|
④口⑤口 |⑥---|
73
口口口口 |①---|
②③口口 |②-③-|
②①口①
口①口①

⑥口口⑦
口口④⑤
口口④口 |④-⑤-|
口⑦⑥口 |⑥-⑦-|
74
口②口口 |①--②|
①②口口 |----|
①口口口
口口口口

③口口④
⑤口口口
口口口⑤ |③-④-|
④口口③ |⑤---|
75
口①①口 |①---|
口①①口 |②-③-|
口①②口
口③②口

④口⑥⑤
④口⑥口
口口口口 |④-⑤-|
⑦口口口 |⑥-⑦-|
76
⑤①口⑥ |①-②-|
⑦①口④ |③-④-|
④③③⑦ |⑤-⑥-|
⑥口②⑤ |⑦---|
77
口①口口 |①---|
口①口口 |②-③-|
口①口口
③①②②

⑤⑦口⑥
口口口④
⑦口⑥④ |④-⑤-|
口口口口 |⑥-⑦-|
78
④口③⑤ |①-②-|
⑥①①③ |③---|
口口口⑥ |④-⑤-|
⑤②②④ |⑥---|
79
⑥①①口 |①---|
⑥①①口 |②-③-|
⑥①①口 |④-⑤-|
④②③⑤ |⑥---|
80
口①①① |①---|
口①①① |②-③-|
口①口①
口②③口

口⑥口⑥
口口口口
④口⑤口 |④-⑤-|
④口口口 |⑥---|
81
②口口口 |①---|
口③口口 |②-③-|
②①口①
口①口①

口口④口
口口口⑤
口口④⑦ |④-⑤-|
口⑥⑥口 |⑥-⑦-|
82
①口口③ |①-②-|
口②④口 |③-④-|
口①③口
口口口口

口口口口
口⑧口口
⑦口口口 |⑤-⑥-|
口⑥⑤口 |⑦-⑧-|
83
①口①口 |①---|
口口②口 |--②-|
口①口① |----|
口口口口 |----|

accuracy: 99.5%
最終更新:2023年01月03日 03:18