アットウィキロゴ
アンビバレント
Eve

ADVANCED

Level: 6
BPM: 188
Notes: 393

1
口口口口 |----|
口口口口 |----|
口口口口 |----|
口口口口 |----|
2
口口口口 |①-②-|
口⑤⑥⑦ |③-④-|
①②③④ |--⑤-|
口口口口 |⑥-⑦-|
3
口①②③ |--①-|
口口口口 |②-③-|
口④⑤⑥ |--④-|
口口口口 |⑤-⑥-|
4
口口口口 |--①-|
口口口口 |②-③-|
口④⑤⑥ |--④-|
口①②③ |⑤-⑥-|
5
口②口口 |--①-|
口口①口 |--②-|
口③④口 |--③-|
口口口口 |④---|
6
口口口口 |①-②-|
④③②① |③-④-|
⑦⑥⑤口 |--⑤-|
口口口口 |⑥-⑦-|
7
口口口口 |--①-|
③②①口 |②-③-|
⑥⑤④口 |--④-|
口口口口 |⑤-⑥-|
8
口口口口 |--①-|
口口口口 |②-③-|
⑥⑤④口 |--④-|
③②①口 |⑤-⑥-|
9
口口②口 |--①-|
口①口口 |--②-|
口④③口 |--③-|
口口口口 |④---|
10
口口口口 |----|
①口口② |①-②-|
③口口④ |③-④-|
⑤口口⑥ |⑤-⑥-|
11
口口口口 |①-②-|
口⑤⑥⑦ |③-④-|
口③④口 |--⑤-|
口①②口 |⑥-⑦-|
12
⑥①②③ |--①-|
口口口口 |②-③-|
口④⑤口 |--④-|
口口口口 |⑤-⑥-|
13
口口②口 |--①-|
口①口口 |--②-|
口③④口 |--③-|
口口口口 |④---|
14
口口口口 |①-②-|
④③②① |③-④-|
⑦⑥⑤口 |--⑤-|
口口口口 |⑥-⑦-|
15
口口口口 |--①-|
③②①口 |②-③-|
⑥⑤④口 |--④-|
口口口口 |⑤-⑥-|
16
⑥口口⑥ |--①-|
口口口口 |②-③-|
口⑤④口 |--④-|
③②①口 |⑤-⑥-|
17
口口口口 |--①-|
①口口① |--②-|
②④③② |--③-|
口口口口 |④---|
18
口口口口 |①---|
口①①口 |--②-|
口口口口 |----|
口②②口 |----|
19
口口口口 |----|
口口口口 |----|
口口口口 |----|
口口口口 |----|
20
口口口口 |----|
口口口口 |①-②-|
①②④③ |----|
口口口口 |③-④-|
21
口口口③ |----|
①②口口 |①-②-|
口口口④ |--③-|
口口口口 |--④-|
22
⑤口口④ |①---|
口口口口 |②-③-|
②③①口 |--④-|
口口口口 |--⑤-|
23
口口口口 |----|
口口口口 |--①-|
口①②口 |②---|
口口口口 |----|
24
口口口③ |----|
①口口口 |①-②-|
口②口口 |--③-|
口④口口 |--④-|
25
④口口⑤ |①---|
口口口口 |②-③-|
口②③口 |--④-|
口口①口 |--⑤-|
26
口口口口 |----|
口①②口 |①-②-|
口③④口 |③-④-|
口⑤口口 |⑤---|
27
口口口口 |----|
⑤口口口 |--①-|
③口口④ |②-③-|
①口口② |④-⑤-|
28
口口口口 |----|
口③③口 |①---|
口②②口 |②---|
口①①口 |③---|
29
①口口① |①---|
②口口② |②---|
③口口③ |③---|
④口口④ |④---|
30
口⑥口口 |--①-|
①④⑤口 |--②-|
口②③口 |③-④-|
口口口口 |⑤-⑥-|
31
口口①口 |①---|
口口口口 |②-③-|
④②③⑤ |--④-|
口口口口 |⑤---|
32
口口口口 |----|
①②③④ |①-②-|
口口口口 |③-④-|
口⑤⑤口 |--⑤-|
33
②①①② |--①-|
口口口口 |--②-|
口③④口 |--③-|
口⑤口口 |④-⑤-|
34
口口口⑤ |①---|
口③④口 |②-③-|
②口⑥口 |④-⑤-|
口口①口 |⑥---|
35
口口口口 |----|
口口口口 |----|
口口口口 |----|
口口口口 |----|
36
口⑦口口 |--①-|
口⑤⑥口 |②-③-|
口③④口 |④-⑤-|
口①②口 |⑥-⑦-|
37
④口口① |①--②|
⑤口口② |--③-|
⑥口口③ |④--⑤|
口口口口 |--⑥-|
38
口口①口 |①--②|
口④②口 |--③-|
口口③口 |④---|
口⑤⑥口 |⑤-⑥-|
39
①⑤⑤口 |①--②|
②④④口 |--③-|
③口口口 |④---|
口口口口 |⑤---|
40
口口口② |----|
口口①③ |--①-|
口口口④ |②--③|
口口口口 |--④-|
41
①口口口 |①--②|
②⑦⑥口 |--③-|
③⑤④口 |④-⑤-|
口口口口 |⑥-⑦-|
42
口口①口 |①---|
口②②口 |----|
口口口口 |----|
口口口口 |--②-|
43
口口口口 |①---|
口口口口 |----|
口①①口 |----|
口②口口 |--②-|
44
⑧⑥⑦口 |①-②-|
口④⑤口 |③-④-|
口②③口 |⑤-⑥-|
口口①口 |⑦-⑧-|
45
口口口① |①---|
口口口口 |--②-|
口②③④ |③-④-|
口口口口 |----|
46
①口口② |①---|
②口口① |②---|
口③③口 |③---|
口④④口 |④---|
47
口口口口 |----|
口口口口 |①-②-|
①③④② |③-④-|
口⑤口口 |⑤---|
48
②口口① |①---|
①口口② |②---|
口③③口 |③---|
口④④口 |④---|
49
口口口口 |----|
口口口口 |①-②-|
①③④② |③-④-|
口⑤口口 |⑤---|
50
①口口② |①---|
②口口① |②---|
口③③口 |③---|
口④④口 |④---|
51
口口口口 |----|
口口④② |①-②-|
口口③① |③-④-|
口⑤⑤口 |⑤---|
52
口口口口 |----|
②④口口 |①-②-|
①③口口 |③-④-|
口⑤⑤口 |⑤---|
53
②①①③ |①---|
④口口⑤ |②-③-|
⑥口口⑦ |④-⑤-|
口口口口 |⑥-⑦-|
54
口④⑤口 |①---|
口⑤④口 |②-③-|
口②③口 |----|
①③②口 |④-⑤-|
55
①口口② |----|
②口口① |①-②-|
③口口④ |----|
④口口③ |③-④-|
56
口④④口 |----|
③口口③ |①-②-|
口①②口 |--③-|
口②①口 |④---|
57
③口口③ |----|
③②②③ |①---|
口①口口 |②-③-|
口口口口 |----|
58
口口口③ |----|
口口口④ |①-②-|
口②①⑤ |③--④|
口口口口 |--⑤-|
59
①口⑤口 |①--②|
②④口口 |--③-|
③口口口 |④---|
口口口口 |--⑤-|
60
①口口① |①---|
口口④口 |--②-|
③②口③ |③---|
口口口口 |--④-|
61
口口口口 |①---|
①口口① |--②-|
口口口口
口②口口

⑤口口⑤
⑤口口⑤
口口口口 |③-④-|
④口③口 |--⑤-|
62
口⑦④口 |①-②-|
⑥⑤口口 |③-④-|
口①②③ |--⑤-|
口口口口 |⑥-⑦-|
63
口⑥③口 |--①-|
⑤④①② |②-③-|
口口口口 |--④-|
口口口口 |⑤-⑥-|
64
口⑥③口 |--①-|
⑤④①② |②-③-|
口口口口 |--④-|
口口口口 |⑤-⑥-|
65
口口口口 |--①-|
口口①口 |--②-|
口②口口 |--③-|
口④③口 |④---|
66
口④口口 |①-②-|
③②①口 |③-④-|
口口口口
口口口口

口口口口
口口⑦口
口口口口 |--⑤-|
口口⑤⑥ |⑥-⑦-|
67
口③⑥口 |--①-|
口口口口 |②-③-|
②①④⑤ |--④-|
口口口口 |⑤-⑥-|
68
口③⑥口 |--①-|
口口④⑤ |②-③-|
②①口口 |--④-|
口口口口 |⑤-⑥-|
69
口口口口 |--①-|
口①口口 |--②-|
口口②口 |--③-|
口③④口 |④---|
70
口口口口 |----|
①①①① |①---|
口口口口 |----|
口口口口 |----|

accuracy: 99.5%
最終更新:2023年01月03日 03:25