アットウィキロゴ
アンビバレント
Eve

EXTREME

Level: 8
BPM: 188
Notes: 472

1
口口口口 |----|
口口口口 |----|
口口口口 |----|
口口口口 |----|
2
口口口口 |①-②-|
①口④④ |③-④-|
口②口口
口口③口

口口口口
⑦⑦口口
口口⑤口 |--⑤-|
口⑥口口 |⑥-⑦-|
3
口口口口 |--①-|
⑥⑥③③ |②-③-|
口①④口 |--④-|
口⑤②口 |⑤-⑥-|
4
⑤口口口 |--①-|
⑤口③③ |②-③-|
口①④④ |--④-|
口口②口 |--⑤-|
5
口①②口 |--①-|
口①②口 |--②-|
口口③口 |--③-|
口④口口 |④---|
6
口口口口 |①-②-|
①口④④ |③-④-|
口②口口
口口③口

口口口口
⑦⑦口口
口口⑤口 |--⑤-|
口⑥口口 |⑥-⑦-|
7
口口口口 |--①-|
⑥⑥③③ |②-③-|
口①④口 |--④-|
口⑤②口 |⑤-⑥-|
8
⑥口口口 |--①-|
⑥口③③ |②-③-|
口①④口 |--④-|
口⑤②口 |⑤-⑥-|
9
口①②口 |--①-|
口①②口 |--②-|
口口③口 |--③-|
口④口口 |④---|
10
口口②口 |----|
③口口⑥ |①-②-|
口①口口 |③-④-|
口⑤④口 |⑤-⑥-|
11
口①④④ |①-②-|
口口口口 |③-④-|
③口②口
口口口口

⑦⑦口口
⑤口口口
口⑥口口 |--⑤-|
口口口口 |⑥-⑦-|
12
⑥口③③ |--①-|
⑥口口① |②-③-|
④口②口 |--④-|
口⑤口口 |⑤-⑥-|
13
口①②口 |--①-|
口①②口 |--②-|
口③口④ |--③-|
口口口口 |④---|
14
④④⑦⑦ |①-②-|
口①口口 |③-④-|
口⑤②口 |--⑤-|
口③⑥口 |⑥-⑦-|
15
③③口口 |--①-|
口口⑥⑥ |②-③-|
口④①口 |--④-|
口②⑤口 |⑤-⑥-|
16
口口口⑥ |--①-|
③③口口 |②-③-|
⑥④①口 |--④-|
口②⑤口 |⑤-⑥-|
17
①②②口 |--①-|
②口口② |--②-|
口③④① |--③-|
口口口口 |④---|
18
口口口口 |①---|
口口②口 |--②-|
口口口口 |----|
口①口口 |----|
19
口口口口 |----|
口口口口 |----|
口口口口 |----|
口口口口 |----|
20
口口口口 |----|
口④③口 |①-②-|
口①②口 |----|
口口口口 |③-④-|
21
口口口口 |----|
口口口③ |①-②-|
口口④口 |--③-|
口①②口 |--④-|
22
⑤口口④ |①---|
口②③口 |②-③-|
口①口口 |--④-|
口口口口 |--⑤-|
23
口口口口 |----|
口①②③ |--①②|
口口口口 |③---|
口口口口 |----|
24
③口口口 |----|
口口②④ |①-②-|
口①口口 |--③-|
口口口口 |--④-|
25
口口口① |①---|
③口口口 |②-③-|
口④②⑤ |--④-|
口口口口 |--⑤-|
26
口①口口 |----|
口口②⑤ |①-②-|
口③口口 |③-④-|
口口④口 |⑤---|
27
口口④口 |----|
口③口口 |--①-|
②口⑤口 |②-③-|
口①口口 |④-⑤-|
28
口口口① |----|
口③口① |①---|
口③口口 |②---|
口②②口 |③---|
29
①①口口 |①---|
口④口② |②---|
口④口② |③---|
③③口口 |④---|
30
①口口④ |--①-|
③⑥②口 |②-③-|
⑤口⑦口 |④-⑤-|
口口口口 |⑥-⑦-|
31
口④口口 |①---|
口口⑤① |②-③-|
口③口口 |--④-|
口口②口 |⑤---|
32
口口⑥口 |----|
口口⑥口 |①-②-|
①⑤口② |③-④-|
口③④口 |⑤-⑥-|
33
①⑤口② |--①-|
①③④② |--②-|
口口口口 |--③-|
口口口口 |④-⑤-|
34
口口①口 |①---|
口口口口 |②-③-|
⑥②③口 |④-⑤-|
口④⑤口 |⑥---|
35
口口口口 |----|
口口口口 |----|
口口口口 |----|
口口口口 |----|
36
口⑦口口 |--①-|
口⑤⑥口 |②-③-|
口③④口 |④-⑤-|
口①②口 |⑥-⑦-|
37
④口口① |①--②|
⑤口口② |--③-|
⑥口口③ |④--⑤|
口口口口 |--⑥-|
38
口口①口 |①--②|
口④②口 |--③-|
口口③口 |④---|
口⑤⑥口 |⑤-⑥-|
39
①口口口 |①--②|
②④口口 |--③-|
③口口口 |④---|
口⑤⑤口 |⑤---|
40
④口口口 |----|
③口口口 |--①-|
②口①口 |②--③|
口口口口 |--④-|
41
口口口③ |①--②|
口④⑤② |--③-|
口⑥⑦① |④-⑤-|
口口口口 |⑥-⑦-|
42
④口口⑤ |①---|
②口口口 |②---|
口口口③ |③---|
口①口口 |④-⑤-|
43
口①②口 |①-②-|
口③④口 |③-④-|
口⑤⑥口 |⑤-⑥-|
口⑦⑧口 |⑦-⑧-|
44
⑦口口⑧ |①-②-|
⑤口口⑥ |③-④-|
③口口④ |⑤-⑥-|
①口口② |⑦-⑧-|
45
口①口口 |①---|
口③口口 |--②-|
口口④口 |③-④-|
口②口口 |----|
46
③①④④ |①---|
③口②④ |②---|
④②口③ |③---|
④④①③ |④---|
47
②口口口 |----|
口口⑤口 |①-②-|
口④口③ |③-④-|
口口①口 |⑤---|
48
④④①③ |①---|
④②口③ |②---|
③口②④ |③---|
③①④④ |④---|
49
口口口② |----|
口口口口 |①-②-|
③①④口 |③-④-|
口⑤口口 |⑤---|
50
③①④④ |①---|
③口②④ |②---|
④②口③ |③---|
④④①③ |④---|
51
口①⑤⑤ |----|
口口③口 |①-②-|
口②口口 |③-④-|
口口④口 |⑤---|
52
④口口口 |----|
口口口② |①-②-|
③口口口 |③-④-|
⑤⑤口① |⑤---|
53
口口口口 |①---|
口口口口 |②-③-|
③①①口
口口②口

口口口⑤
口口⑥④
口⑦口④ |④-⑤-|
口口口口 |⑥-⑦-|
54
①①③口 |①---|
口③口口 |②-③-|
口口口口
口②口口

口⑤口口
口口⑤口
口口口口 |----|
口口④口 |④-⑤-|
55
③口口② |----|
②口口③ |①-②-|
口①①口 |----|
口④④口 |③-④-|
56
④②②④ |----|
口口口口 |①-②-|
④③③④ |--③-|
①口口① |④---|
57
口口③口 |----|
口③②③ |①---|
口口③口 |②-③-|
口口①口 |----|
58
③口⑤口 |----|
③④⑤口 |①-②-|
口④口口 |③--④|
口①②口 |--⑤-|
59
④④口① |①--②|
口口口口 |--③-|
③⑤②⑤ |④---|
口口②口 |--⑤-|
60
口口①① |①---|
口②③口 |--②-|
④口口④ |③---|
①①口口 |--④-|
61
①①口口 |①---|
口口②口 |--②-|
口口口口
口口①①

口口口④
口口口③
口口口口 |③-④-|
口⑤⑤口 |--⑤-|
62
④④⑦⑦ |①-②-|
①②口⑤ |③-④-|
口③⑥口 |--⑤-|
口口口口 |⑥-⑦-|
63
③③⑥⑥ |--①-|
①口口④ |②-③-|
口②⑤口 |--④-|
口口口口 |⑤-⑥-|
64
③③口⑥ |--①-|
①口口⑥ |②-③-|
口②口④ |--④-|
口口⑤口 |⑤-⑥-|
65
口②①口 |--①-|
口②①口 |--②-|
④口③口 |--③-|
口口口口 |④---|
66
⑦⑦④④ |①-②-|
口口①口 |③-④-|
口②⑤口 |--⑤-|
口⑥③口 |⑥-⑦-|
67
口口③③ |--①-|
⑥⑥口口 |②-③-|
口①④口 |--④-|
口⑤②口 |⑤-⑥-|
68
口口口口 |--①-|
口口③③ |②-③-|
⑥①④⑥ |--④-|
口⑤②口 |⑤-⑥-|
69
①口口① |--①-|
②口口② |--②-|
口④③口 |--③-|
口口口口 |④---|
70
口①①口 |----|
①口口① |①---|
口口口口 |----|
口口口口 |----|

accuracy: 99.5%
最終更新:2023年01月03日 03:25