アットウィキロゴ
Over “Quartzer”
Shuta Sueyoshi feat. ISSA

BASIC

Level: 3
BPM: 133
Notes: 203

1
口口口口 |----|
口口口口 |----|
口口口口 |----|
口口口口 |----|
2
口口口口 |----|
口口口口 |----|
口口口口 |----|
口口口口 |----|
3
口口口口 |----|
口口口口 |----|
口口口口 |----|
口口口口 |----|
4
口口口口 |①---|
口口口口 |----|
①①①① |----|
口口口口 |----|
5
①①①① |①---|
口口口口 |----|
口口口口 |----|
口口口口 |----|
6
口口口口 |①---|
口口口口 |----|
①①①① |----|
口口口口 |----|
7
①①①① |①---|
口口口口 |----|
口口口口 |----|
口口口口 |----|
8
口口口口 |①---|
口②口口 |----|
①①①① |②---|
口口口口 |----|
9
①①①① |①---|
口口②口 |----|
口口口口 |②---|
口口口口 |----|
10
口口口口 |①---|
口②口口 |----|
①①①① |②---|
口口口口 |----|
11
①①①① |①---|
口口②口 |----|
口口口口 |②---|
口口口口 |----|
12
口口口口 |①---|
口口口口 |----|
①①①① |----|
口口口口 |----|
13
口口口口 |①---|
口①口口 |----|
口口口口 |----|
口口口口 |----|
14
口口口口 |①---|
口口①口 |----|
口口口口 |----|
口口口口 |----|
15
口口口口 |①---|
口口口口 |----|
口①口口 |----|
口口口口 |----|
16
口口口口 |①---|
口口口口 |----|
口口②口 |②---|
口口①口 |----|
17
口口②② |①---|
口口①① |----|
口口口口 |②---|
口口口口 |----|
18
口①口口 |①---|
口②口口 |----|
口口口口 |②---|
口口口口 |----|
19
口口口口 |①---|
口口口口 |----|
①①口口 |②---|
②②口口 |----|
20
口口口口 |①---|
口口口口 |----|
口②口口 |②---|
口口①口 |----|
21
口②口口 |①---|
口口①口 |----|
口口口口 |②---|
口口口口 |----|
22
②②①① |①---|
口口口口 |--②-|
口口口口 |----|
口口口口 |----|
23
口口口口 |①---|
口口①口 |----|
口口②口 |②---|
口口口口 |----|
24
口口口口 |①---|
②口口口 |----|
口口口口 |②---|
口口①口 |----|
25
口口口口 |----|
口口口① |----|
口口口口 |①---|
口口口口 |----|
26
口口口口 |----|
口口口口 |----|
口①口口 |①---|
口口口口 |----|
27
口②口口 |①---|
口口①口 |----|
口口口口 |②---|
口口口口 |----|
28
口口口① |①---|
口口口② |----|
口口口口 |②---|
口口口口 |----|
29
口口口口 |①---|
口①口口 |----|
口②口口 |②---|
口口口口 |----|
30
口口口口 |①---|
口口口口 |----|
口口②口 |②---|
口口①口 |----|
31
口口口口 |①---|
口①①口 |----|
口口口口 |----|
口口口口 |----|
32
口口①① |①---|
口口②② |②---|
口口③③ |③---|
口口④④ |④---|
33
④④口口 |①---|
③③口口 |②---|
②②口口 |③---|
①①口口 |④---|
34
口口③口 |①---|
口口②口 |②---|
口④①口 |③---|
口口口口 |④---|
35
口②口口 |①---|
口①口口 |②---|
口③③口 |③---|
口口口口 |----|
36
①①口口 |①---|
②②口口 |②---|
③③口口 |③---|
④④口口 |④---|
37
口口④④ |①---|
口口③③ |②---|
口口②② |③---|
口口①① |④---|
38
口①口口 |①---|
口口口口 |----|
口②②口 |②---|
口口口口 |----|
39
口口口口 |①---|
口口①口 |----|
口口口口 |②---|
口②②口 |----|
40
口口口口 |①---|
口②④口 |②---|
口①③口 |③---|
口口口口 |④---|
41
口口口口 |①---|
口③③口 |②---|
口②②口 |③---|
口①①口 |----|
42
①②④③ |①---|
口口口口 |②---|
口口口口 |③---|
口口口口 |④---|
43
口口口口 |①---|
口①①口 |②---|
口②②口 |----|
口口口口 |----|
44
口口①① |①---|
口口②② |②---|
口口③③ |③---|
口口④④ |④---|
45
④④口口 |①---|
③③口口 |②---|
②②口口 |③---|
①①口口 |④---|
46
口口①口 |①---|
口口口口 |----|
口②②口 |②---|
口口口口 |----|
47
口口口口 |①---|
口①口口 |----|
口口口口
口口口口

口口口口
口③③口
口口口口 |②---|
口②②口 |③---|
48
①②③④ |①---|
口口口口 |②---|
口口口口 |③---|
口口口口 |④---|
49
口口口口 |①---|
口口①口 |②---|
口②口口 |③---|
③④口口 |④---|
50
④③②① |①---|
口口口口 |②---|
口口口口 |③---|
口口口口 |④---|
51
口口口口 |①---|
口①口口 |②---|
口口②口 |③---|
口口④③ |④---|
52
①②③④ |①---|
口口口口 |②---|
口口口口 |③---|
口口口口 |④---|
53
口口口口 |①---|
口口①口 |②---|
口②口口 |③---|
③④口口 |④---|
54
口口口口 |----|
口②①口 |----|
口口口口 |①---|
口口口口 |②---|
55
口口口口 |①---|
口口口口 |②---|
口②①口 |----|
口口口口 |----|
56
口口口口 |----|
口②①口 |----|
口口口口 |①---|
口口口口 |②---|
57
口口口口 |①---|
③③③③ |②---|
口②①口 |----|
口口口口 |③---|

accuracy: 99.5%
最終更新:2023年01月17日 10:59