アットウィキロゴ
Over “Quartzer”
Shuta Sueyoshi feat. ISSA

ADVANCED

Level: 7
BPM: 133
Notes: 460

1
口口口口 |----|
口口口口 |----|
口口口口 |----|
口口口口 |----|
2
口口口口 |----|
口口口口 |----|
口口口口 |----|
口口口口 |----|
3
口口口口 |----|
口口口口 |----|
口口口口 |----|
口口口口 |----|
4
①①口④ |①-②-|
口⑥②口 |③-④-|
口③⑥口 |--⑤-|
口口口⑤ |--⑥-|
5
①口口口 |--①-|
②口口口 |--②-|
③口口口 |--③-|
④口口口 |--④-|
6
④口①① |①-②-|
口②⑥口 |③-④-|
口⑥③口 |--⑤-|
⑤口口口 |--⑥-|
7
口口口① |--①-|
口口口② |--②-|
口口口③ |--③-|
口口口④ |--④-|
8
①①口④ |①-②-|
口⑥②口 |③-④-|
口③⑥口 |--⑤-|
口口口⑤ |--⑥-|
9
口口口① |----|
③口口口 |①---|
口口口口 |②---|
②口口口 |③---|
10
④口①① |①-②-|
口②口⑤ |③-④-|
⑥⑧③口 |⑤-⑥-|
口口口⑦ |⑦-⑧-|
11
⑤口①口 |①-②-|
口②口⑥ |③-④-|
⑦口③口 |⑤-⑥-|
口④口⑧ |⑦-⑧-|
12
⑦口口口 |①--②|
口①①⑤ |--③④|
口口④口 |⑤--⑥|
②③口⑥ |--⑦-|
13
口①②⑦ |①-②-|
口③口口 |--③-|
口口⑤口 |④-⑤-|
⑥口口④ |⑥-⑦-|
14
口②①口 |①-②-|
口④口⑤ |--③-|
口口⑦口 |④-⑤-|
⑥口口③ |⑥-⑦-|
15
⑧口口④ |①-②-|
③口口⑦ |③-④-|
⑥口口② |⑤-⑥-|
口①⑤口 |⑦-⑧-|
16
口②②口 |①-②-|
口④口口 |③-④⑤|
口口⑤口
①③③①

⑦口⑩⑧
⑨口口口
口⑥口口 |⑥-⑦⑧|
口⑪口口 |-⑨⑩⑪|
17
④④⑤⑤ |①-②-|
⑥⑥③③ |③-④-|
②②⑦⑦ |⑤-⑥-|
⑧⑧①① |⑦-⑧-|
18
口②①口 |--①②|
⑪④③⑩ |③④-⑤|
⑤口口⑥ |⑥-⑦⑧|
⑨⑦⑧口 |-⑨⑩⑪|
19
③③①① |①-②-|
⑧⑧⑥⑥ |③-④-|
④④②② |⑤-⑥-|
⑦⑦⑤⑤ |⑦-⑧-|
20
④①①④ |①--②|
口口⑥口 |--③-|
口②②口 |④--⑤|
⑤③口⑤ |--⑥-|
21
口①①口 |①--②|
口③口口 |--③-|
⑦口④⑧ |④---|
⑤②②⑥ |⑤⑥⑦⑧|
22
①①②② |①---|
口①②口 |--②-|
口口口口
口口口口

口口口口
口③口口
口口④口 |----|
口口口口 |③-④-|
23
②口口② |①---|
④口口④ |②---|
口口口口 |③---|
③①口③ |④---|
24
②③④⑤ |①---|
②③④⑤ |--②-|
①口口① |③-④-|
⑥口口口 |⑤-⑥-|
25
口口口⑤ |----|
口口口口 |--①-|
④③②① |②-③-|
④③②① |④-⑤-|
26
①口口口 |----|
口口口② |--①-|
③⑤口口 |②-③-|
口口口④ |④-⑤-|
27
口②②① |①---|
口③③口 |②---|
口④④口 |③---|
口口口口 |④---|
28
①⑤⑥④ |--①-|
口⑦口口 |②-③-|
口口⑧口 |④-⑤⑥|
③⑨口② |-⑦⑧⑨|
29
④口⑤口 |--①-|
口⑥⑨③ |②-③-|
②⑧口口 |④-⑤⑥|
口口⑦① |-⑦⑧⑨|
30
③①口口 |①---|
③口②口 |----|
口②口③ |----|
口口口③ |②-③-|
31
②④①① |--①-|
口口③口 |----|
口③口口 |--②-|
①①④② |③-④-|
32
口口①① |①---|
口口口① |----|
①口口口
①①口口

口③③口
口②口口
口口②口 |②---|
口口口口 |--③-|
33
⑥口口⑥ |--①-|
①口口② |②-③-|
口④⑤口 |--④-|
口③③口 |⑤-⑥-|
34
口①②口 |--①-|
④①②⑤ |②---|
口④⑤口 |③---|
③口口③ |④-⑤-|
35
口①①口 |--①-|
口口口口 |----|
口口口口
口口口口

⑤⑤④②
⑤③口口
口口③⑤ |②-③-|
②④⑤⑤ |④-⑤-|
36
②口口② |----|
口口①口 |----|
口①口口 |①---|
口口口口 |--②-|
37
口口口口 |--①-|
①①⑥⑥ |②-③-|
⑤⑤②② |--④-|
③③④④ |⑤-⑥-|
38
②口口口 |----|
口口口口 |----|
口③口口 |①--②|
口①口口 |--③-|
39
口口②① |①---|
③口口口 |----|
口口口口 |--②-|
口口④口 |③-④-|
40
⑦⑦③③ |①-②-|
⑥⑥②② |③-④-|
⑤⑤①① |⑤-⑥-|
口④口口 |⑦---|
41
⑥⑥⑤⑤ |①-②-|
④④①① |③-④-|
口⑤⑥口 |--⑤-|
②②③③ |--⑥-|
42
口口口口 |--①-|
③口②口 |②-③-|
口②口③
①口口①

口⑤④口
口口⑥⑥
⑥⑥口口 |--④-|
口④⑤口 |⑤-⑥-|
43
②④⑤⑤ |--①-|
①①③⑤ |----|
⑤③①① |②-③-|
⑤⑤④② |④-⑤-|
44
②口口② |----|
口①口口 |----|
口口①口 |①---|
口口口口 |--②-|
45
⑤⑤④④ |--①-|
口③③口 |②-③-|
④②②⑤ |--④-|
④①①⑤ |--⑤-|
46
口口口口 |----|
口口口口 |----|
口口口口 |----|
口口口口 |----|
47
口口口口 |----|
口①口口 |----|
口口②口 |--①-|
口口口③ |②-③-|
48
①口②② |①---|
④④⑤口 |②---|
口口③③ |③---|
口口口口 |④-⑤-|
49
口③口口 |--①-|
口口④口 |②---|
口⑤②口 |③-④-|
口①⑥口 |⑤-⑥-|
50
②②①① |①---|
口口口① |②---|
①口口口
①①口口

口口口口
口④④口
口口③③ |③---|
⑤口口口 |④-⑤-|
51
口④口口 |--①-|
口⑤口③ |②-③-|
口⑥口② |④-⑤-|
口口口① |⑥---|
52
②②口① |①---|
口口④④ |②---|
③③口口 |③---|
口⑤口口 |④-⑤-|
53
④口①口 |--①-|
口②口⑤ |②-③-|
⑥口③口 |④-⑤-|
口口口口 |⑥---|
54
口口口口 |----|
口口③③ |----|
口口②② |①-②-|
口口①① |③---|
55
口口口口 |①-②-|
③③口口 |③---|
②②口口 |----|
①①口口 |----|
56
口①①口 |①---|
口口④④ |----|
口口③③ |②-③-|
口口②② |④---|
57
口口口口 |①-②-|
③③口口 |③---|
②②口口
①①口口

口口口口
口口④口
口⑤口口 |--④-|
⑥口口口 |⑤-⑥-|

accuracy: 99.5%
最終更新:2023年01月17日 10:59