アットウィキロゴ
Over “Quartzer”
Shuta Sueyoshi feat. ISSA

EXTREME

Level: 9.7
BPM: 133
Notes: 656

1
口口口口 |----|
口口口口 |----|
口口口口 |----|
口口口口 |----|
2
口口口口 |----|
口口口口 |----|
口口口口 |----|
口口口口 |----|
3
口口口口 |----|
口口口口 |----|
口口口口 |----|
口口口口 |----|
4
①口口① |①-②-|
④①①口 |③-④-|
②①①②
口③③口

口⑥口口
口口口口
⑥口口口 |--⑤-|
⑤口口口 |--⑥-|
5
口口口① |--①-|
口口口② |--②-|
口口口③ |--③-|
口口口④ |--④-|
6
①②②① |①-②-|
①①①① |③-④-|
④①①口
口③③口

⑥口口口
口口口口
口⑥口口 |--⑤-|
⑤口口口 |--⑥-|
7
口口口① |--①-|
口口口② |--②-|
口口口③ |--③-|
口口口④ |--④-|
8
②①③① |①-②-|
口①①① |③-④-|
④口①口
口口口口

口⑥口口
⑥口口口
口口口口 |--⑤-|
口⑤口口 |--⑥-|
9
口口口口 |----|
口口③④ |①---|
口口②口 |②---|
口口①口 |③-④-|
10
①①口② |①-②-|
①口口口 |③-④-|
④①口口
①①③口

口⑧口口
⑥口⑦⑤
口口口口 |⑤-⑥-|
口口口口 |⑦-⑧-|
11
②口口① |①②③④|
⑧④口⑤ |⑤⑥⑦⑧|
口口口③
口⑥口⑦

⑯⑫⑨⑬
口口口口
⑩口口⑮ |⑨⑩⑪⑫|
⑭口⑪口 |⑬⑭⑮⑯|
12
口③④口 |①--②|
口①①① |--③④|
②①①口
口①口①

口口口⑤
口⑦口口
口⑦口口 |⑤--⑥|
口口⑥口 |--⑦-|
13
⑦⑧口③ |①-②-|
口口①② |--③-|
口口①② |④-⑤⑥|
④口⑥⑤ |-⑦⑧-|
14
口口④③ |①--②|
①口①口 |--③④|
①①①口
②①口口

口⑤口口
⑦口口口
口口口口 |⑤--⑥|
口口口⑥ |--⑦-|
15
④④口② |①②-③|
口口⑤⑤ |④-⑤-|
口口③口
口①口口

口口口⑪
⑩⑫口口
口⑥⑬⑨ |⑥⑦⑧⑨|
⑧口⑦口 |⑩⑪⑫⑬|
16
①①口口 |①-②-|
④口⑤② |③-④⑤|
口口口口
口口口③

⑧口⑦口
口口口⑩
⑪⑨口口 |⑥-⑦⑧|
口⑥口口 |-⑨⑩⑪|
17
④①口② |①-②-|
①①口口 |③-④-|
口口①①
③口①①

口口口⑧
口⑥⑤口
口⑤口口 |⑤-⑥-|
口口口⑦ |⑦-⑧-|
18
①口⑤口 |--①②|
口口②口 |③④-⑤|
③口口口
口口④口

⑨⑦口⑨
⑥口口⑧
口口口口 |⑥-⑦⑧|
口口口口 |-⑨--|
19
口④②口 |①-②-|
口口口口 |③-④-|
③①①①
①①①①

⑤口口口
⑦⑧口⑤
口口⑥口 |⑤-⑥-|
口⑥口⑦ |⑦-⑧-|
20
口口①① |①--②|
③口①② |--③-|
①①口口
①口口口

④④口口
口④口⑥
⑤口④④ |④--⑤|
口口口④ |--⑥-|
21
口口①① |①--②|
口口①口 |--③-|
③①口口
①①口②

口口口口
口④⑤口
口⑤④口 |④---|
口口口口 |⑤---|
22
①口②② |①---|
①口②② |--②-|
①口②②
①口②②

③口口口
口口口口
口口口口 |----|
④口口口 |③-④-|
23
口口②② |①---|
口①口④ |②---|
口①①④ |③---|
③③①① |④---|
24
①①①② |①---|
①口①口 |--②-|
①①①口
口口口口

口口⑥口
口⑤⑤⑤
口口④口 |③-④-|
口③③③ |⑤-⑥-|
25
口⑤口① |----|
③②②④ |--①-|
口②②口 |②-③-|
②②②口 |④-⑤-|
26
②口⑤① |----|
口口口口 |--①-|
口口口口 |②-③-|
④口口③ |④-⑤-|
27
②口口② |①---|
口①口口 |②---|
①①①①
口①口口

口口④口
口④口④
④口④口 |③---|
③④口③ |④---|
28
口口口① |--①-|
口口②口 |②-③-|
口②③②
口口②口

④口⑥口
口⑦口口
口口口⑧ |④-⑤⑥|
⑤⑨口口 |-⑦⑧⑨|
29
口②口③ |--①-|
②口②口 |②-③-|
口②口口
口口口①

⑦口口口
口⑤口⑧
口⑨⑥口 |④-⑤⑥|
④口口口 |-⑦⑧⑨|
30
口③口② |①-②-|
口口口口 |③-④-|
④口口口
口口口①

⑩⑩口口
⑧口口⑦
口口口⑨ |⑤⑥⑦⑧|
口⑥⑤⑨ |⑨-⑩-|
31
口口口① |--①-|
口①①口 |②-③-|
口①①口
①③②口

④口口口
口口口口
口口口口 |--④-|
⑥口口⑤ |⑤-⑥-|
32
口①②口 |①②③④|
⑧口口③ |⑤⑥⑦⑧|
⑦口口④
口⑥⑤口

口口⑪⑪
口口口⑪
口⑨⑨口 |⑨---|
⑩口口口 |⑩-⑪-|
33
④④口口 |①-②-|
④②口口 |③-④-|
口口③口
口口①口

口口口口
口口⑥口
口⑦口口 |⑤-⑥-|
口⑤⑧⑧ |⑦-⑧-|
34
口口②② |①-②-|
口③口口 |③---|
①口口口
口口口口

⑥⑥口口
口口口口
⑤⑤④④ |④---|
口口口口 |⑤-⑥-|
35
⑤⑨⑧⑥ |①-②-|
②口①口 |③-④-|
口口口③ |⑤-⑥-|
②口④⑦ |⑦-⑧⑨|
36
口口口口 |①②③④|
①⑧⑦⑥ |⑤⑥⑦⑧|
②口口⑤
口③④口

口口口⑪
口口口口
口⑨⑨⑪ |⑨---|
⑩口口口 |⑩-⑪-|
37
口口②口 |①-②-|
①口④② |③-④-|
③④口口
口③口口

⑤口口⑧
⑦口口口
口口口⑧ |⑤-⑥-|
⑦口⑥⑥ |⑦-⑧-|
38
口①口口 |①-②-|
口⑤④口 |③④⑤-|
口口②口
口③口口

口口口⑥
口口口⑥
⑦口口口 |⑥--⑦|
⑦⑧⑧口 |--⑧-|
39
口口①口 |①---|
口口口口 |----|
口①口口
口口口口

③④⑤口
口③④⑤
口口口口 |②-③-|
口口口② |④-⑤-|
40
口口口口 |①-②-|
口口口口 |③-④-|
口口③②
①③②④

口⑤⑥⑦
⑤⑥⑦口
口口口口 |⑤-⑥-|
⑧口口口 |⑦-⑧-|
41
⑤②④口 |①-②-|
②口⑦① |③-④-|
口⑦③① |--⑤-|
口④⑥③ |⑥-⑦-|
42
③⑥④口 |--①-|
口①口口 |②-③-|
口⑤①口 |--④-|
②④⑥③ |⑤-⑥-|
43
③⑤⑥② |--①-|
口口口① |----|
①口口口 |②-③-|
④口口口 |④-⑤⑥|
44
口口口口 |①②③④|
⑥⑦⑧① |⑤⑥⑦⑧|
⑤口口②
口④③口

口口⑪口
口口口⑪
⑪⑨⑨口 |⑨---|
⑩⑪口口 |⑩-⑪-|
45
口①口口 |--①-|
①②③口 |②-③-|
口③②①
口口①口

⑤⑤④④
⑤口口④
④口口⑤ |--④-|
④④⑤⑤ |--⑤-|
46
口口口口 |----|
口③②口 |①---|
口①口口 |②---|
口口口口 |③---|
47
口口口口 |①---|
②口口① |②---|
口口口口
口口口口

口④④⑥
⑥口⑥口
口⑥口③ |③-④-|
口⑤⑤口 |⑤-⑥-|
48
②口口口 |①-②-|
口④口口 |③-④-|
③口①口
③口口①

⑦口⑥口
口口⑧⑤
口口⑧⑤ |⑤-⑥-|
口口⑧口 |⑦-⑧-|
49
口口口② |--①-|
口①口口 |②-③-|
口①口口
③①口口

口口④口
口口⑤④
口口⑥⑤ |④-⑤-|
口⑦口⑥ |⑥-⑦-|
50
①③③① |①-②-|
口口口口 |③-④-|
口口④③
②口口口

⑧口口口
⑤⑥⑦口
口⑦口口 |⑤-⑥-|
口⑤⑤⑧ |⑦-⑧-|
51
⑦⑤⑤③ |①-②-|
⑦⑧④③ |③-④-|
②④①⑦ |⑤-⑥-|
②⑥⑥⑦ |⑦-⑧-|
52
口③⑤① |①-②-|
⑦口口⑧ |③-④-|
⑦④⑥⑧ |⑤-⑥-|
②⑤③口 |⑦-⑧-|
53
④②④② |①-②-|
口①口口 |③-④-|
口口口口
③口③口

口口口口
口⑦⑥口
口⑥⑦口 |⑤-⑥-|
口⑤口⑤ |⑦---|
54
①①⑥③ |①--②|
④⑤口口 |--③-|
⑦口⑥口 |④-⑤-|
④⑤②口 |⑥-⑦-|
55
口③口口 |①-②-|
口口②① |③-④-|
口③口④
口口②①

口口口⑧
⑤⑨⑫口
口口⑥口 |⑤⑥⑦⑧|
⑦⑪口⑩ |⑨⑩⑪⑫|
56
①①⑥口 |①--②|
④⑤口② |--③-|
⑦口⑥口 |④-⑤-|
④⑤③口 |⑥-⑦-|
57
口③口口 |①-②-|
口口②① |③-④-|
口③口④
口口②①

口口⑤口
⑥⑧⑦⑧
口⑧⑧口 |⑤-⑥-|
⑥⑧⑦⑧ |⑦-⑧-|

accuracy: 99.5%
最終更新:2023年01月17日 11:00