アットウィキロゴ
されど奇術師は賽を振る
嘘とカメレオン

BASIC

Level: 2
BPM: 210
Notes: 139

1
口口口口 |----|
口口口口 |----|
口口口口 |----|
口口口口 |----|
2
口口口口 |①---|
口口口口 |----|
口口口口 |----|
口①①口 |----|
3
口口口口 |①---|
口口口口 |----|
口①①口 |----|
口口口口 |----|
4
口口口口 |----|
口口口口 |----|
口口口口 |----|
口口口口 |----|
5
口口口口 |----|
口口口口 |----|
口口口口 |----|
口口口口 |----|
6
口口②① |①---|
口口口口 |----|
口口口口 |②---|
口口口口 |----|
7
口①口口 |①---|
口口口口 |----|
口口口口 |----|
口口口口 |----|
8
口口口口 |①---|
①②口口 |----|
口口口口 |②---|
口口口口 |----|
9
口口口口 |①---|
口口①口 |----|
口口口口 |----|
口口口口 |----|
10
口口口口 |①---|
口口口口 |----|
口口②① |②---|
口口口口 |----|
11
口口口口 |①---|
口口口口 |----|
口①口口 |----|
口口口口 |----|
12
口口口口 |①---|
口口口口 |----|
口口口口 |②---|
①②口口 |----|
13
口口口口 |①---|
口口口口 |----|
口口口口 |----|
口口①口 |----|
14
口口口口 |①---|
口口口口 |----|
口①①口 |----|
口口口口 |----|
15
口口口口 |①---|
口口口① |----|
口口口口 |----|
口口口口 |----|
16
口口口口 |①---|
口口口口 |----|
口①①口 |----|
口口口口 |----|
17
口口口口 |①---|
①口口口 |----|
口口口口 |----|
口口口口 |----|
18
口口口口 |①---|
口口口口 |----|
口①①口 |----|
口口口口 |----|
19
口口口口 |①---|
口口口① |----|
口口口口 |----|
口口口口 |----|
20
口口口口 |①---|
口口口口 |----|
口①①口 |----|
口口口口 |----|
21
口口口口 |①---|
①口口口 |----|
口口口口 |----|
口口口口 |----|
22
①口口① |①---|
②口口② |----|
口口口口 |②---|
口口口口 |----|
23
口口口口 |①---|
口①①口 |----|
口①①口 |----|
口口口口 |----|
24
口口口口 |①---|
口口口口 |----|
口①①口 |----|
口口口口 |----|
25
口口口口 |①---|
口口口① |----|
口口口口 |----|
口口口口 |----|
26
①口口① |①---|
②口口② |----|
口口口口 |②---|
口口口口 |----|
27
口口口口 |①---|
口①①口 |----|
口①①口 |----|
口口口口 |----|
28
口口口口 |①---|
口口口口 |----|
口①①口 |----|
口口口口 |----|
29
口口口口 |①---|
①口口口 |----|
口口口口 |----|
口口口口 |----|
30
口口①口 |①---|
口口口口 |----|
口口口口 |----|
口口口口 |----|
31
口口口口 |①---|
口口①口 |----|
口口口口 |----|
口口口口 |----|
32
口口口口 |①---|
口口口口 |----|
口口①口 |----|
口口口口 |----|
33
口口口口 |①---|
口口口口 |----|
口口口口 |----|
口①①口 |----|
34
口口口口 |①---|
口口口口 |----|
①口口① |----|
口口口口 |----|
35
口口口口 |①---|
①口口① |----|
口口口口 |----|
口口口口 |----|
36
口口口口 |①---|
口口口口 |----|
口②②口 |②---|
口①①口 |----|
37
口②②口 |①---|
口①①口 |----|
口口口口 |②---|
口口口口 |----|
38
①口口① |①---|
口口口口 |----|
口口口口 |----|
口口口口 |----|
39
口口口口 |----|
口口口口 |----|
口①①口 |①---|
口口口口 |----|
40
口口口① |①---|
口口口② |----|
口口口口 |②---|
口口口口 |----|
41
口口口口 |①---|
口口口口 |----|
口口口① |②---|
口口口② |----|
42
口口口口 |①---|
口口口口 |----|
口①①口 |----|
口口口口 |----|
43
口口口口 |①---|
口①①口 |----|
口口口口 |----|
口口口口 |----|
44
①口口口 |①---|
②口口口 |----|
口口口口 |②---|
口口口口 |----|
45
口口口口 |①---|
口口口口 |----|
①口口口 |②---|
②口口口 |----|
46
口口口口 |①---|
口口口口 |----|
口①①口 |----|
口口口口 |----|
47
口口口口 |①---|
口①①口 |----|
口口口口 |----|
口口口口 |----|
48
口口①口 |①---|
口②口口 |----|
口口口口 |②---|
口口口口 |----|
49
口口口口 |①---|
口口口口 |----|
口口①口 |②---|
口②口口 |----|
50
口口口口 |①---|
口口口口 |----|
口②口口 |②---|
口口①口 |----|
51
口②口口 |①---|
口口①口 |----|
口口口口 |②---|
口口口口 |----|
52
口口口① |①---|
②口口口 |----|
口口口口 |②---|
口口口口 |----|
53
口口口口 |①---|
口口口口 |----|
口口口① |②---|
②口口口 |----|
54
口口口口 |①---|
口口口口 |----|
口①①口 |----|
口口口口 |----|
55
口口口口 |①---|
口①①口 |----|
口口口口 |----|
口口口口 |----|
56
口口①① |①---|
口口口口 |----|
口口口口 |----|
口口口口 |----|
57
①①口口 |①---|
口口口口 |----|
口口口口 |----|
口口口口 |----|
58
口口口口 |①---|
口①①口 |----|
口②②口 |②---|
口口口口 |----|
59
口口口口 |①---|
口口口口 |----|
口口口口 |----|
口①①口 |----|
60
口口口口 |①---|
口②②口 |----|
口①①口 |②---|
口口口口 |----|
61
口口②① |①---|
口口口口 |----|
口口口口 |②---|
口口口口 |----|
62
②①口口 |①---|
口口口口 |----|
口口口口 |②---|
口口口口 |----|
63
口口口口 |①---|
①②口口 |----|
口口口口 |②---|
口口口口 |----|
64
口口口口 |①---|
口口①② |----|
口口口口 |②---|
口口口口 |----|
65
口口口口 |①---|
口口口口 |----|
口口②① |②---|
口口口口 |----|
66
口口口口 |①---|
口口口口 |----|
②①口口 |②---|
口口口口 |----|
67
口口口口 |①---|
口口口口 |----|
口口口口 |②---|
①②口口 |----|
68
口口口口 |①---|
口口口口 |----|
口口口口 |②---|
口口①② |----|
69
口口口口 |----|
口②②口 |①---|
口①①口 |②---|
口口口口 |----|
70
①口口① |----|
口口口口 |----|
口口口口 |①---|
口口口口 |----|

accuracy: 99.5%
最終更新:2023年01月17日 11:16