アットウィキロゴ
されど奇術師は賽を振る
嘘とカメレオン

ADVANCED

Level: 7
BPM: 210
Notes: 370

1
口口口口 |----|
口口口口 |----|
口口口口 |----|
口口口口 |----|
2
口口④④ |①---|
口口③③ |②---|
口口②② |③---|
口口①① |④---|
3
④④口口 |①---|
③③口口 |②---|
②②口口 |③---|
①①口口 |④---|
4
口口口口 |----|
口口口口 |----|
口口口口 |----|
口口口口 |----|
5
口口口口 |----|
口口口口 |----|
口口口口 |----|
口口口口 |----|
6
②口口① |①---|
口口口口 |②---|
口③③口 |③---|
①④④② |④---|
7
口口口口 |①-②-|
④口口③ |③-④-|
②口口① |----|
口口口口 |----|
8
①口口② |①---|
口口口口 |②---|
口③③口 |③---|
②④④① |④---|
9
口口口口 |①-②-|
③口口④ |③-④-|
①口口② |----|
口口口口 |----|
10
②口口① |①---|
口口口口 |②---|
口③③口 |③---|
①④④② |④---|
11
口口口口 |①-②-|
④口口③ |③-④-|
②口口① |----|
口口口口 |----|
12
①口④② |①---|
口口口④ |②---|
口口口口 |③---|
②③③① |--④-|
13
口口口口 |----|
口口口口 |①---|
③②①口 |②---|
口口口口 |③---|
14
口口口① |①---|
②③口口 |--②-|
口口口④ |③---|
口口口口 |--④-|
15
口口口口 |①---|
口④④口 |--②-|
口口①口 |③---|
②③口口 |④---|
16
③口口① |①---|
口口口口 |②---|
口口口口 |③---|
④口口② |④---|
17
口③③口 |①-②-|
口口口口 |--③-|
口口②① |----|
口④④口 |④---|
18
①口口口 |①---|
口口③② |--②-|
口④④口 |③---|
口口口口 |④---|
19
③口口① |①---|
口口口口 |②---|
口口口口 |③---|
④口口② |④---|
20
③③①① |①---|
口口口口 |②---|
口口口口 |③---|
④④②② |④---|
21
③③①① |①---|
口口口口 |②---|
口口口口 |③---|
④④②② |④---|
22
口口口口 |①---|
口③②① |②---|
口③②① |③---|
口口口口 |----|
23
口③②① |①---|
口③②① |②---|
口口口口 |③---|
口口口口 |----|
24
①口口③ |①---|
口口口口 |②---|
口口口口 |③---|
②口口④ |④---|
25
①口口③ |①---|
口口口口 |②---|
口口口口 |③---|
②口口④ |④---|
26
口口口口 |①---|
①②③口 |②---|
①②③口 |③---|
口口口口 |----|
27
①②③口 |①---|
①②③口 |②---|
口口口口 |③---|
口口口口 |----|
28
③口口① |①---|
口口口口 |②---|
口口口口 |③---|
④口口② |④---|
29
③口口③ |①---|
口②②口 |②---|
口①①口 |③---|
口口口口 |----|
30
口口口口 |①---|
②口口② |----|
口口①口 |②---|
口①口口 |----|
31
口口口口 |①---|
②口口② |----|
口①口口 |②---|
口口①口 |----|
32
口口口口 |①---|
口②①口 |----|
口口口口 |②---|
口①②口 |----|
33
③口口③ |①---|
②口口② |②---|
口①①口 |③---|
口口口口 |----|
34
口口口口 |①---|
口口口② |--②-|
口口口口 |----|
①①①① |----|
35
①①①① |①---|
口口口口 |--②-|
②口口口 |----|
口口口口 |----|
36
口口口口 |①---|
口口口口 |②---|
④③②① |③---|
④③②① |④---|
37
①②③④ |①---|
①②③④ |②---|
口口口口 |③---|
口口口口 |④---|
38
口口口口 |①---|
口口口口 |----|
口口口口 |----|
口①①口 |----|
39
③口口③ |①---|
②口口② |②---|
①口口① |③---|
口口口口 |----|
40
口③①口 |①---|
口口口口 |②---|
口口口口 |③---|
④口口② |④---|
41
口口口口 |①---|
口③③口 |②---|
口②②口 |③---|
口①①口 |----|
42
口口①口 |①---|
口②口① |----|
②口口口 |②---|
口口口口 |----|
43
①口口① |①---|
④口口④ |②---|
口②②口 |③---|
口③③口 |④---|
44
口①③口 |①---|
口口口口 |②---|
口口口口 |③---|
②口口④ |④---|
45
口④④口 |①---|
口③③口 |②---|
口②②口 |③---|
口①①口 |④---|
46
①③③① |①---|
③口口③ |----|
口口口口 |②---|
口②②口 |③---|
47
③口口③ |①---|
口②①口 |②---|
口②①口 |③---|
口口口口 |----|
48
口口口口 |①---|
③口口口 |②---|
③②口口 |③---|
③②①口 |----|
49
口①①口 |①---|
口①①口 |----|
口口口口 |②---|
②口口② |----|
50
口①②③ |①---|
口口②③ |②---|
口口口③ |③---|
口口口口 |----|
51
②口口② |①---|
口口口口 |----|
口①①口 |②---|
口①①口 |----|
52
口口口口 |①---|
口口口口 |②---|
④③②① |③---|
口口口口 |④---|
53
口口口口 |①---|
③①口② |----|
口口口口 |②---|
口①口口 |③---|
54
口①①口 |①---|
口口口口 |----|
口口口口 |②---|
口②②口 |----|
55
口口口口 |①---|
口口口口 |②---|
①②③④ |③---|
口口口口 |④---|
56
口①口口 |①---|
①口口口 |----|
口②口口 |②---|
②口口口 |----|
57
口口①口 |①---|
口口口① |----|
口口②口 |②---|
口口口② |----|
58
②口口② |①---|
口①①口 |----|
口口口口 |②---|
口口口口 |----|
59
口口口口 |①---|
③口口③ |②---|
②口口② |③---|
①口口① |----|
60
口①①口 |①---|
口②②口 |②---|
口③③口 |③---|
口口口口 |----|
61
②口口① |①---|
口口口口 |②---|
口③③口 |③---|
①④④② |④---|
62
口口口口 |①-②-|
④口口③ |③-④-|
②口口① |----|
口口口口 |----|
63
①口口② |①---|
口口口口 |②---|
口③③口 |③---|
②④④① |④---|
64
口口口口 |①-②-|
③口口④ |③-④-|
①口口② |----|
口口口口 |----|
65
②口口① |①---|
口口口口 |②---|
口③③口 |③---|
①④④② |④---|
66
口口口口 |①-②-|
④口口③ |③-④-|
②口口① |----|
口口口口 |----|
67
①口④② |①---|
口口口④ |②---|
口口口口 |③---|
②③③① |--④-|
68
口口口口 |----|
口口口口 |①---|
③②①口 |②---|
口口口口 |③---|
69
②口口② |----|
口①①口 |①---|
口口口口 |②---|
口口口口 |----|
70
口口⑤⑤ |①-②-|
口口口口 |③-④-|
口④③口 |⑤---|
口②①口 |----|

accuracy: 99.5%
最終更新:2023年01月17日 11:17