アットウィキロゴ
されど奇術師は賽を振る
嘘とカメレオン

EXTREME

Level: 9.6
BPM: 210
Notes: 613

1
口口口口 |----|
口口口口 |----|
口口口口 |----|
口口口口 |----|
2
④④④④ |①---|
口③③③ |②---|
口②②② |③---|
口①①① |④---|
3
④④④④ |①---|
③③③口 |②---|
②②②口 |③---|
①①①口 |④---|
4
口口口口 |----|
口口口口 |----|
口口口口 |----|
口口口口 |----|
5
口口口① |----|
口口口口 |----|
口口口口 |①---|
①口口口 |----|
6
②③②③ |①---|
口①⑥① |②---|
②⑤口③ |③-④⑤|
⑦口④① |⑥-⑦-|
7
口口③口 |①-②-|
口⑥口① |③-④-|
④⑦口口 |--⑤-|
口②⑤口 |⑥-⑦-|
8
③②③② |①---|
①⑥①口 |②---|
③口⑤② |③-④⑤|
①④口⑦ |⑥-⑦-|
9
口③口口 |①-②-|
①口⑥口 |③-④-|
口口⑦④ |--⑤-|
口⑤②口 |⑥-⑦-|
10
②③②③ |①---|
口①⑥① |②---|
②⑤口③ |③-④⑤|
⑦口④① |⑥-⑦-|
11
口口③口 |①-②-|
口⑤口① |③-④-|
④⑥口口 |--⑤-|
口②⑦口 |⑥-⑦-|
12
③②③② |①---|
①⑥①⑦ |②---|
③口⑤② |③-④⑤|
①④口口 |⑥-⑦-|
13
口口口口 |--①-|
口⑥③口 |②-③-|
口②⑤口 |④-⑤-|
①口口④ |⑥---|
14
口④①① |①---|
③口口⑥ |②-③-|
口口口口 |④---|
口⑤②口 |⑤-⑥-|
15
口④①口 |①---|
③口口口 |②-③-|
口口口口 |④---|
⑤口②⑤ |⑤---|
16
③口口① |①---|
口口口口 |②---|
③口口① |③---|
④②②④ |④---|
17
口口②⑦ |①-②-|
④④⑥① |③-④-|
口⑤口口 |--⑤-|
口⑥③口 |⑥-⑦-|
18
①①口口 |①---|
口④口口 |②-③-|
③口口口 |④---|
⑤口②⑤ |⑤---|
19
③口口① |①---|
口口口口 |②---|
③口口① |③---|
④②②④ |④---|
20
口③①口 |①---|
口口口口 |②---|
③口口① |③---|
④②②④ |④---|
21
③口口① |①---|
口口口口 |②---|
口③①口 |③---|
④②②④ |④---|
22
④③②① |①---|
口③②① |②---|
口③②① |③---|
口口⑤口 |④-⑤-|
23
口口口② |①-②-|
口口口⑤ |③-④-|
①口④口 |⑤---|
⑥③口⑥ |⑥---|
24
①口口③ |①---|
口③①口 |②---|
①口口③ |③---|
④②②④ |④---|
25
口①③口 |①---|
①口口③ |②---|
口①③口 |③---|
④②②④ |④---|
26
①②③④ |①---|
①②③口 |②---|
①②③口 |③---|
口⑤口口 |④-⑤-|
27
②口⑤口 |①-②-|
①④口⑤ |③-④-|
口③口口 |⑤---|
⑥口口⑥ |⑥---|
28
③口口① |①---|
口③①口 |②---|
③口口① |③---|
④②②④ |④---|
29
③②①口 |①---|
口口口口 |②---|
口③②① |③---|
口口口口 |----|
30
口口口口 |①---|
①口口① |----|
口口③口 |②---|
②口口口 |--③-|
31
③口口① |①---|
③口口① |--②-|
口②口口 |③---|
口口口口 |----|
32
⑥口口口 |①--②|
口口口⑤ |-----③------|
口④口口 |④-⑤-|
口③②① |--⑥-|
33
口口③③ |①---|
②②口口 |②---|
③③②② |③---|
①口口口 |----|
34
②②口口 |①---|
②口口口 |--②-|
口口口③ |----|
④①①① |③-④-|
35
口口②口 |①---|
口①口② |--②-|
①②③口 |----|
口口①口 |③---|
36
④④④③ |①---|
①②①③ |②---|
①③④③ |③---|
①②②② |④---|
37
④④④③ |①---|
①②①③ |②---|
①③④③ |③---|
①②②② |④---|
38
口口口口 |①---|
①口①口 |----|
①口口口 |----|
①口口口 |----|
39
③③③③ |①---|
口口口口 |②---|
①口口① |③---|
②④口② |④---|
40
④口口口 |①---|
口③①② |②---|
③④口① |③---|
口口②口 |④---|
41
口口②② |①---|
③③口② |②---|
③口口口 |③---|
④①④① |④---|
42
③①口⑥ |①---|
④④①口 |②-③-|
口口口① |④---|
⑤②⑤② |⑤-⑥-|
43
口③③口 |①---|
口口①① |②---|
②口口④ |③---|
④②④② |④---|
44
③口口① |①---|
①①③③ |②---|
口④②口 |③---|
④②④② |④---|
45
③③①① |①---|
①口口③ |②---|
④口口② |③---|
④②④② |④---|
46
口口口④ |①---|
口①①③ |②----③--|
口①①⑤ |④---|
⑤②⑤② |⑤---|
47
①②③口 |①---|
①②③口 |②---|
①②③口 |③---|
口口口口 |----|
48
③③③① |①---|
口⑤口口 |②---|
④口口口 |③---|
口②②口 |④-⑤-|
49
口口口③ |①-②-|
口口②口 |③---|
口口③① |④---|
④④口⑤ |⑤---|
50
①①②② |①---|
①①②② |②---|
③③③② |③---|
③③③④ |④---|
51
①口③口 |①-②-|
⑤②口口 |③-④-|
⑤口口④ |⑤---|
口口口口 |----|
52
口⑤⑤④ |①-②-|
口口③⑤ |③-④-|
口②口⑤ |⑤---|
①⑥口口 |⑥---|
53
口③④口 |①---|
③①②④ |②---|
④②①③ |③---|
口④③口 |④---|
54
①④口③ |①---|
口口②口 |--②-|
口②口口 |③---|
③口口① |--④-|
55
④口口③ |①---|
①③④② |②---|
②④③① |③---|
口①②口 |④---|
56
口②④口 |①---|
③口口口 |②---|
③口③① |③---|
口①口① |④---|
57
③口口口 |①---|
③①③① |②---|
口口口① |③---|
②口口④ |④---|
58
③②口① |①---|
口口口口 |--②-|
口口口口 |③---|
④①③口 |--④-|
59
口口③③ |①---|
口口②② |②---|
口口①① |③---|
口口口④ |--④-|
60
口口口口 |①---|
①①口口 |②---|
②②口口 |③---|
③③口口 |----|
61
②③②③ |①---|
口①⑥① |②---|
②⑤口③ |③-④⑤|
⑦口④① |⑥-⑦-|
62
口口③口 |①-②-|
口⑥口① |③-④-|
④⑦口口 |--⑤-|
口②⑤口 |⑥-⑦-|
63
③②③② |①---|
①⑥①口 |②---|
③口⑤② |③-④⑤|
①④口⑦ |⑥-⑦-|
64
口③口口 |①-②-|
①口⑥口 |③-④-|
口口⑦④ |--⑤-|
口⑤②口 |⑥-⑦-|
65
②③②③ |①---|
口①⑥① |②---|
②⑤口③ |③-④⑤|
⑦口④① |⑥-⑦-|
66
口口③口 |①-②-|
口⑤口① |③-④-|
④⑥口口 |--⑤-|
口②⑦口 |⑥-⑦-|
67
③②③② |①---|
①⑥①⑦ |②---|
③口⑤② |③-④⑤|
①④口口 |⑥-⑦-|
68
⑦口口口 |--①-|
口⑥③口 |②-③-|
口②⑤口 |④-⑤-|
①口口④ |⑥-⑦-|
69
口②①口 |----|
口口口口 |①---|
口口口口 |②---|
①③③② |--③-|
70
⑤⑤⑤① |①-②-|
口口②口 |③-④-|
口③口口 |⑤---|
④口口口 |----|

accuracy: 99.5%
最終更新:2023年01月17日 11:17