アットウィキロゴ
JINGO JUNGLE (Big Room Mix)
Remixed by BEMANI Sound Team "Sota Fujimori" feat.Nana Takahashi

BASIC

Level: 2
BPM: 130
Notes: 206

1
口口口口 |----|
口口口口 |----|
口口口口 |----|
口口口口 |----|
2
口口口口 |----|
口口口口 |----|
口口口口 |----|
口口口口 |----|
3
口口口口 |①---|
口口口口 |----|
口②口口 |②---|
口①口口 |----|
4
口口口口 |①---|
口口口口 |----|
口口②① |②---|
口口口口 |----|
5
口口口口 |①---|
口①①口 |----|
口②②口 |②---|
口口口口 |----|
6
口口口口 |①---|
口①①口 |----|
口②②口 |②---|
口口口口 |----|
7
口口口口 |①---|
口口口口 |----|
口口②口 |②---|
口口①口 |----|
8
口口口口 |①---|
口口口口 |----|
①②口口 |②---|
口口口口 |----|
9
口口口口 |①---|
口①①口 |----|
口②②口 |②---|
口口口口 |----|
10
口口口口 |①---|
口①①口 |----|
口②②口 |②---|
口口口口 |----|
11
口口口口 |----|
口口口口 |----|
口口口口 |----|
口口口口 |----|
12
口口口口 |①---|
①②③④ |②---|
口口口口 |③---|
口口口口 |④---|
13
口口口口 |①---|
口口口口 |②---|
④③②① |③---|
口口口口 |④---|
14
口口口口 |①---|
口①①口 |----|
口②②口 |②---|
口口口口 |----|
15
口口口口 |①---|
口①①口 |----|
口②②口 |②---|
口口口口 |----|
16
口口口口 |----|
③②①口 |①---|
口口口口 |②---|
口口口口 |③---|
17
口口口口 |①---|
口口口口 |②---|
①②③④ |③---|
口口口口 |④---|
18
口口口口 |①---|
口①①口 |----|
口②②口 |②---|
口口口口 |----|
19
口口口口 |①---|
口①①口 |----|
口②②口 |②---|
口口口口 |----|
20
口口②① |①---|
口口口口 |----|
口口口口 |②---|
口口口口 |----|
21
口口口口 |①---|
口口②① |----|
口口口口 |②---|
口口口口 |----|
22
口口口口 |①---|
口口口口 |----|
口口②① |②---|
口口口口 |----|
23
口口口口 |①---|
口口口口 |----|
口口口口 |②---|
口口②① |----|
24
口口口口 |①---|
口口口口 |----|
口口口口 |②---|
①②口口 |----|
25
口口口口 |①---|
口口口口 |----|
①②口口 |②---|
口口口口 |----|
26
口口口口 |①---|
①②口口 |----|
口口口口 |②---|
口口口口 |----|
27
①②口口 |①---|
口口口口 |----|
口口口口 |②---|
口口口口 |----|
28
口口口口 |①---|
②①①② |----|
口口口口 |②---|
口口口口 |----|
29
口①①口 |①---|
口②②口 |②---|
口③③口 |③---|
口口口口 |----|
30
口口口① |①---|
②口口口 |②---|
口口口③ |③---|
口口口口 |----|
31
口口口口 |①---|
口口口口 |----|
口口口口 |②---|
①①②② |----|
32
口口口口 |①---|
②口口② |----|
口①①口 |②---|
口口口口 |----|
33
口①①口 |①---|
口②②口 |②---|
口③③口 |③---|
口口口口 |----|
34
①口口口 |①---|
口口口② |②---|
③口口口 |③---|
口口口口 |----|
35
口口口口 |①---|
口①①口 |----|
口口口口 |②---|
口②②口 |----|
36
口口口口 |①---|
①口口① |----|
口口口口 |②---|
②口口② |----|
37
口口口口 |①---|
①①①① |----|
口口口口 |----|
口口口口 |----|
38
口口口口 |①---|
口②③口 |②---|
口①④口 |③---|
口口口口 |④---|
39
口口口口 |①---|
口②③口 |②---|
口①④口 |③---|
口口口口 |④---|
40
口口口口 |①---|
口②③口 |②---|
口①④口 |③---|
口口口口 |④---|
41
④口口口 |①---|
③口口口 |②---|
②①口口 |③---|
口口口口 |④---|
42
口口口口 |①---|
③③④④ |②---|
口②①口 |③---|
口口口口 |④---|
43
口口口口 |①---|
③③④④ |②---|
口②①口 |③---|
口口口口 |④---|
44
口口口口 |①---|
③③④④ |②---|
口②①口 |③---|
口口口口 |④---|
45
口口口④ |①---|
口口口③ |②---|
口口①② |③---|
口口口口 |④---|
46
口口口口 |①---|
口①①口 |----|
口口口口 |----|
口口口口 |----|
47
口口口口 |①---|
①口口① |----|
口口口口 |----|
口口口口 |----|
48
口口口口 |①---|
口口口口 |----|
口①①口 |----|
口口口口 |----|
49
口口口口 |①---|
口口口口 |----|
①口口① |----|
口口口口 |----|
50
口①①口 |①---|
口②②口 |②---|
口③③口 |③---|
口口口口 |----|
51
口口口① |①---|
②口口口 |②---|
口口口③ |③---|
口口口口 |----|
52
口口口口 |①---|
口①①口 |----|
口口口口 |②---|
口②②口 |----|
53
口口口口 |①---|
①口口① |----|
口口口口 |②---|
②口口② |----|
54
口口口口 |①---|
①①①① |----|
口口口口 |----|
口口口口 |----|
55
①③③口 |①---|
口②口口 |②---|
口④④口 |③---|
口口口口 |④---|
56
口③③① |①---|
口口②口 |②---|
口④④口 |③---|
口口口口 |④---|
57
口③③口 |①---|
口口口口 |②---|
②④④口 |③---|
口①口口 |④---|
58
口③③口 |①---|
口口口口 |②---|
口④④② |③---|
口口①口 |④---|
59
口口口口 |①---|
①口口① |----|
口口口口 |----|
口口口口 |----|

accuracy: 99.5%
最終更新:2023年01月17日 10:34