アットウィキロゴ
JINGO JUNGLE (Big Room Mix)
Remixed by BEMANI Sound Team "Sota Fujimori" feat.Nana Takahashi

ADVANCED

Level: 5
BPM: 130
Notes: 362

1
口口口口 |----|
口口口口 |----|
口口口口 |----|
口口口口 |----|
2
口口口口 |----|
口口口口 |----|
口口口口 |----|
口口口口 |----|
3
③口口口 |①---|
②②①① |②---|
口④④口 |③---|
口口口口 |④---|
4
③口口口 |①---|
②②①① |②---|
口④④口 |③---|
口口口口 |④---|
5
口口口口 |①---|
①口口口 |②---|
②④④口 |③---|
③口口口 |④---|
6
口口口口 |①---|
口口口① |②---|
口④④② |③---|
口口口③ |④---|
7
口口口③ |①---|
①①②② |②---|
口④④口 |③---|
口口口口 |④---|
8
口口口③ |①---|
①①②② |②---|
口④④口 |③---|
口口口口 |④---|
9
口口口口 |①---|
口口口① |②---|
口④④② |③---|
口口口③ |④---|
10
口口口口 |①---|
①口口口 |②---|
②④④口 |③---|
③口口口 |④---|
11
①①①① |----|
口口口口 |----|
口口口口 |----|
口口口口 |①---|
12
口口④口 |--①-|
口②口③ |②---|
①口口口 |③-④-|
口口口口 |----|
13
口口④口 |--①-|
口③口口 |②-③-|
⑤口②口 |④--⑤|
口①口⑥ |--⑥-|
14
口口口口 |--①-|
口②③④ |②-③-|
口①口口 |④---|
口⑤⑤口 |⑤---|
15
口口口口 |--①-|
④③②口 |②-③-|
口口①口 |④---|
口⑤⑤口 |⑤---|
16
口④口口 |--①-|
③口②口 |②---|
口口口① |③-④-|
口口口口 |----|
17
口④口口 |--①-|
口口③口 |②-③-|
口②口⑤ |④--⑤|
⑥口①口 |--⑥-|
18
口口口口 |--①-|
④③②口 |②-③-|
口口①口 |④---|
口⑤⑤口 |⑤---|
19
口口口口 |--①-|
口②③④ |②-③-|
口①口口 |④---|
口⑤⑤口 |⑤---|
20
口③⑥口 |--①-|
口②⑤口 |②-③-|
①口口④ |--④-|
口口口口 |⑤-⑥-|
21
①口口口 |--①-|
口②⑦口 |②-③-|
口③⑥口 |④-⑤-|
口④⑤口 |⑥-⑦-|
22
口③⑥口 |--①-|
口②⑤口 |②-③-|
①口口④ |--④-|
口口口口 |⑤-⑥-|
23
口口口口 |--①-|
口口口口 |②-③-|
口①口口
③②口口

口口口口
口口口口
口口④口 |--④-|
口⑥⑤口 |⑤-⑥-|
24
口⑥③口 |--①-|
口⑤②口 |②-③-|
④口口① |--④-|
口口口口 |⑤-⑥-|
25
口口口① |--①-|
口⑦②口 |②-③-|
口⑥③口 |④-⑤-|
口⑤④口 |⑥-⑦-|
26
口口口口 |--①-|
③④口口 |②---|
口⑤②口 |③-④-|
口口口① |⑤---|
27
④口口④ |①-②-|
口口口口 |③---|
口口③口 |④---|
口口②① |----|
28
口口口口 |①---|
口②①口 |----|
口①②口 |②---|
③③③③ |③---|
29
①口①口 |①---|
口②口② |②---|
③口③口 |③---|
口④④口 |④---|
30
口口口① |①---|
②口口口 |②---|
口口口③ |③---|
口④④口 |④---|
31
口①②口 |①---|
①口口② |----|
口口口口 |②---|
口口口口 |----|
32
①口口口 |①---|
①口②口 |②---|
③口②口 |③---|
③④④口 |④---|
33
①口①口 |①---|
口②口② |②---|
③口③口 |③---|
口④④口 |④---|
34
口口口① |①---|
②口口口 |②---|
口口口③ |③---|
口④④口 |④---|
35
口③口口 |①---|
①口③口 |②---|
①②②口 |③---|
口口口口 |----|
36
口口③口 |①---|
口③口① |②---|
口②②① |③---|
口④④口 |④---|
37
②②②② |①---|
①口口① |----|
①口口① |----|
口口口口 |②---|
38
口口口口 |--①-|
③⑤④口 |②-③-|
①⑥②口 |④-⑤-|
口⑦口口 |⑥-⑦-|
39
口口口口 |--①-|
③⑤④口 |②-③-|
①⑥②口 |④-⑤-|
口⑦口口 |⑥-⑦-|
40
口口口口 |--①-|
③⑤④口 |②-③-|
①⑥②口 |④-⑤-|
口⑦口口 |⑥-⑦-|
41
③③③③ |----|
①口口① |①---|
口口口口 |②---|
②口口② |③---|
42
⑤⑤口口 |--①-|
口③口④ |②-③-|
口①口② |④-⑤-|
口⑥⑥口 |--⑥-|
43
⑤⑤口口 |--①-|
口③口④ |②-③-|
口①口② |④-⑤-|
口⑥⑥口 |--⑥-|
44
⑤⑤口口 |--①-|
口③口④ |②-③-|
口①口② |④-⑤-|
口⑥⑥口 |--⑥-|
45
口口口口 |----|
①口口① |①---|
②口口② |②---|
③③③③ |③---|
46
口①口口 |①---|
①口口口 |----|
口口口② |②---|
口口②口 |----|
47
口口①口 |①---|
口口口① |----|
②口口口 |②---|
口②口口 |----|
48
口①口口 |①---|
①口口口 |----|
口口口② |②---|
口口②口 |----|
49
口①①口 |①---|
口②②口 |②---|
口③③口 |③---|
④④④④ |④---|
50
口①口① |①---|
②口②口 |②---|
口③口③ |③---|
口④④口 |④---|
51
①口口口 |①---|
口口口② |②---|
③口口口 |③---|
口④④口 |④---|
52
口口③口 |①---|
口③口① |②---|
口②②① |③---|
口口口口 |----|
53
口③口口 |①---|
①口③口 |②---|
①②②口 |③---|
口④④口 |④---|
54
②②②② |①---|
①口口① |----|
①口口① |----|
口口口口 |②---|
55
⑤口口口 |①-②-|
④口口① |③-④-|
⑥③②⑥ |⑤---|
口口口口 |⑥---|
56
口口口⑤ |①-②-|
①口口④ |③-④-|
⑥②③⑥ |⑤---|
口口口口 |⑥---|
57
①口口③ |①-②-|
口②④口 |③-④-|
口⑥⑧口 |⑤-⑥-|
⑤口口⑦ |⑦-⑧-|
58
①口口③ |①-②-|
口②④口 |③-④-|
口⑥⑧口 |⑤-⑥-|
⑤口口⑦ |⑦-⑧-|
59
口口口口 |①---|
口①①口 |----|
口口口口 |----|
口口口口 |----|

accuracy: 99.5%
最終更新:2023年01月17日 10:35