アットウィキロゴ
JINGO JUNGLE (Big Room Mix)
Remixed by BEMANI Sound Team "Sota Fujimori" feat.Nana Takahashi

EXTREME

Level: 9.0
BPM: 130
Notes: 620

1
口口口口 |----|
口口口口 |----|
口口口口 |----|
口口口口 |----|
2
①口口口 |----|
口口口口 |----|
口口口口 |----|
口口口① |①---|
3
口口口④ |①-②-|
口口③③ |③-④-|
口②口口
①①口口

⑤口口口
口口口口
⑥⑧口口 |⑤-⑥⑦|
⑦⑨口口 |-⑧⑨-|
4
④口⑥⑤ |①-②-|
③③⑨⑧ |③-④-|
口口②⑦ |⑤⑥-⑦|
口口①① |-⑧⑨-|
5
⑥口口口 |①-②-|
③①口口 |③-④-|
⑤③①口 |⑤---|
口⑤④② |⑥---|
6
口口口⑥ |①-②-|
口口①③ |③-④-|
口①③⑤ |⑤---|
②④⑤口 |⑥---|
7
口口口④ |①-②-|
口口③③ |③-④-|
口②口口
①①口口

⑤口口口
口口口口
⑥⑧口口 |⑤-⑥⑦|
⑦⑨口口 |-⑧⑨-|
8
④口⑥⑤ |①-②-|
③③⑨⑧ |③-④-|
口口②⑦ |⑤⑥-⑦|
口口①① |-⑧⑨-|
9
⑥口口口 |①-②-|
③①口口 |③-④-|
⑤③①口 |⑤---|
口⑤④② |⑥---|
10
口口口⑥ |①-②-|
口口①③ |③-④-|
口①③⑤ |⑤---|
②④⑤口 |⑥---|
11
口口口① |----|
口口口口 |----|
口口口口 |----|
①口口口 |①---|
12
①口口口 |①-②-|
③口③口 |③---|
口②口口
口口口①

⑤口⑤④
口口口口
口口口口 |④-⑤-|
口口口口 |----|
13
口②口口 |--①-|
口口③① |②-③-|
口②口口
口口③①

④口④口
口口口⑤
⑤口口⑥ |④--⑤|
口⑥口口 |--⑥-|
14
口②②口 |--①-|
①④④口 |②-③-|
③⑧⑧⑦ |④-⑤⑥|
⑤⑥⑥口 |-⑦⑧-|
15
口②②口 |--①-|
口④④① |②-③-|
⑦⑧⑧③ |④-⑤⑥|
口⑥⑥⑤ |-⑦⑧-|
16
②③口③ |----|
①口口① |①---|
口口口口 |②-③-|
①口口① |----|
17
口口②口 |--①-|
①③口口 |②-③-|
口口②口
①③口口

口④口④
⑤口口口
⑥口口⑤ |④--⑤|
口口⑥口 |--⑥-|
18
口②②口 |--①-|
口④④① |②-③-|
⑦⑧⑧③ |④-⑤⑥|
口⑥⑥⑤ |-⑦⑧-|
19
口②②口 |--①-|
①④④口 |②-③-|
③⑧⑧⑦ |④-⑤⑥|
⑤⑥⑥口 |-⑦⑧-|
20
④②口⑤ |①-②-|
①③⑥① |③-④-|
④⑦口⑦ |--⑤-|
口口口口 |⑥-⑦-|
21
口口①口 |--①-|
口②口口 |②-③-|
口口③口
口口口口

口⑦⑦口
⑥口口口
⑤口口口 |④-⑤-|
口④口口 |⑥-⑦-|
22
口口口口 |--①-|
口口②口 |②-③-|
③口③①
口口口口

④口口口
口⑤口口
口⑥口⑥ |--④-|
口口口口 |⑤-⑥-|
23
口口口口 |--①-|
口口⑥口 |②-③-|
⑤⑥③口 |--④-|
④③②① |⑤-⑥-|
24
口口口口 |①-②-|
①②口① |③-④-|
口口③口
④口④口

口口⑤口
口⑥口口
⑦口⑦口 |--⑤-|
口口口口 |⑥-⑦-|
25
口①口口 |--①-|
口口②口 |②-③-|
口③口口
口口口口

口⑦⑦口
口口口⑥
口口口⑤ |④-⑤-|
口口④口 |⑥-⑦-|
26
②口口口 |--①-|
口②口口 |②---|
口①口口
①口口口

口口口③
口口③口
口⑤④口 |③-④-|
⑤口口④ |⑤---|
27
①口口② |①-②-|
口①②口 |③---|
口口③口
口③口③

口④④⑤
④口口④
口口口口 |④---|
⑤口口口 |⑤---|
28
①口②口 |①--②|
口口口口 |--③-|
口③口口
口口②口

⑤④口⑤
口⑤⑤口
⑤口口⑤ |④---|
口④口口 |⑤---|
29
口②①口 |①---|
①口口① |②---|
口②②口
①口口②

口⑤口④
⑤③口口
③口⑤③ |③---|
④口③口 |④-⑤-|
30
②口②口 |--①-|
口口②口 |②-③-|
口口口口
③①③①

⑥④口④
口④口⑤
口口口口 |④---|
口口口口 |⑤-⑥-|
31
⑤口⑥③ |①---|
②⑤口口 |②-③-|
口①口④ |④---|
①①④④ |⑤-⑥-|
32
口口口口 |①-②-|
③口④① |③-④-|
口③①口
口②口口

⑤口口⑤
口⑤口口
⑧口口口 |⑤-⑥-|
口⑦⑥口 |⑦-⑧-|
33
口②①口 |①---|
①口②口 |②---|
口②①口
①口口②

口⑤口④
⑤③口③
③口⑤口 |③---|
④口③口 |④-⑤-|
34
②④②④ |--①-|
口④②口 |②-③-|
口口⑥⑤ |④---|
③①③① |⑤-⑥-|
35
口④①口 |①-②-|
③口口口 |③-④-|
①③口口
口②口口

⑤口口口
口口口口
⑥⑦口口 |⑤---|
⑤口口口 |⑥-⑦-|
36
⑥①④⑤ |①-②-|
口口口③ |③-④-|
口口③① |⑤---|
⑥口②⑤ |⑥---|
37
⑤①①口 |①--②|
②口口① |--③-|
口口③① |-④--|
④口口⑤ |⑤---|
38
口口②口 |①-②-|
①口口① |③-④-|
口③口口
口口④口

⑤口口⑤
口⑥口口
口⑧口口 |⑤-⑥-|
⑦口口⑦ |⑦-⑧-|
39
口①口口 |--①-|
口口口口 |②-③-|
口口②口
口③口口

④口口④
口口⑤口
口口⑦口 |④-⑤-|
⑥口口⑥ |⑥-⑦-|
40
口口②口 |①-②-|
①口口① |③-④-|
口③口口
口口④口

⑤口口⑤
口⑥口口
口⑧口口 |⑤-⑥-|
⑦口口⑦ |⑦-⑧-|
41
口口口② |①---|
①口②① |②---|
口口口②
口口口口

④口③口
④③口口
口口③口 |③---|
口口④④ |④---|
42
口②口① |①-②-|
④③口② |③-④-|
口口③口
①口④口

口口口⑥
口口口口
⑦⑤⑦⑦ |⑤-⑥-|
⑦⑥口口 |--⑦-|
43
口口①口 |--①-|
①口②③ |②-③-|
口②口口
口③口口

⑤口口口
口口口口
⑥⑥④⑥ |④-⑤-|
口口⑤⑥ |--⑥-|
44
⑤①②⑥ |①②③④|
⑦③④⑧ |⑤⑥⑦⑧|
⑬⑨⑩⑭ |⑨⑩⑪⑫|
⑮⑪⑫⑯ |⑬⑭⑮⑯|
45
③口口口 |①-②-|
口①①口 |③-④-|
口②口口
口④口口

口口口⑤
口⑦⑦口
口⑦⑦口 |⑤-⑥-|
口口⑥口 |⑦---|
46
口口①口 |①---|
②口口口 |②---|
①口口②
口①②口

③口④③
口口口④
口③口口 |③---|
口口口口 |--④-|
47
④②④② |--①-|
口口口口 |②-③-|
口口口口 |④---|
①③①③ |----|
48
②口口① |①---|
口口口口 |--②-|
口①②口
②口口①

口口口③
③口口口
口口口口 |----|
口③口口 |③---|
49
①口口口 |--①-|
口口口① |----|
口口口口
口口①口

③②口③
口③③口
③②口③ |②---|
口口口② |③---|
50
口②①口 |①---|
①口口① |②---|
口②②口
①口口②

口⑤口④
⑤③口口
③口⑤③ |③---|
④口③口 |④-⑤-|
51
②④②④ |--①-|
口④②口 |②-③-|
口口⑥⑤ |④---|
③①③① |⑤-⑥-|
52
口④①口 |①-②-|
③口口口 |③-④-|
①③口口
口②口口

⑤口口口
口口口口
⑥⑦口口 |⑤---|
⑤口口口 |⑥-⑦-|
53
⑥①④⑤ |①-②-|
口口口③ |③-④-|
口口③① |⑤---|
⑥口②⑤ |⑥---|
54
②①①口 |①---|
口口口① |----|
口口口① |----|
口口口② |②---|
55
口口口④ |①-②-|
口口③③ |③-④-|
①②口③
①①口口

⑤⑤口口
口⑤口⑨
⑥⑧口口 |⑤-⑥⑦|
⑦⑨口口 |-⑧⑨-|
56
④口口口 |①-②-|
③③口口 |③-④-|
④口②②
口口①①

口⑤⑥⑤
口口⑨⑧
口口口⑦ |⑤⑥-⑦|
口口口口 |-⑧⑨-|
57
④口④口 |①-②-|
③③口口 |③-④-|
②口口口
口口①①

口⑤口⑤
口口口口
口口⑧⑥ |⑤-⑥⑦|
口口⑨⑦ |-⑧⑨-|
58
口④口④ |①-②-|
口口③③ |③-④-|
口②口口
①①口口

⑤口⑤口
⑥口口口
⑦⑨口口 |⑤⑥⑦⑧|
⑧⑩口口 |-⑨⑩-|
59
口口口口 |①---|
口①①口 |----|
口口口口 |----|
口口口口 |----|

accuracy: 99.5%
最終更新:2023年01月17日 10:36