アットウィキロゴ
ヒューマノイド
ずっと真夜中でいいのに。

BASIC

Level: 3
BPM: 159
Notes: 168

1
口口口口 |----|
口口口口 |----|
口口口口 |----|
口口口口 |----|
2
口口口口 |①---|
口口口口 |----|
口口口口 |②---|
口口②① |----|
3
口口口口 |①---|
口口口口 |----|
口口口口 |②---|
②①口口 |----|
4
口口口口 |①---|
口口口口 |----|
①②口口 |②---|
口口口口 |----|
5
口口口口 |①---|
口口口口 |----|
口口①② |②---|
口口口口 |----|
6
口口口口 |①---|
口口②① |----|
口口口口 |②---|
口口口口 |----|
7
口口口口 |①---|
②①口口 |----|
口口口口 |②---|
口口口口 |----|
8
①②口口 |①---|
口口口口 |----|
口口口口 |②---|
口口口口 |----|
9
口口①② |①---|
口口口口 |----|
口口口口 |②---|
口口口口 |----|
10
②口①口 |①---|
口口口口 |----|
口口口口 |②---|
口口口口 |----|
11
口口口口 |①---|
②口①口 |----|
口口口口 |②---|
口口口口 |----|
12
口口口口 |①---|
口口口口 |----|
②口①口 |②---|
口口口口 |----|
13
口口口口 |①---|
口口口口 |----|
口口口口 |②---|
②口①口 |----|
14
口口口口 |①---|
口口口口 |----|
口口口口 |②---|
口①口② |----|
15
口口口口 |①---|
口口口口 |----|
口①口② |②---|
口口口口 |----|
16
口口口口 |①---|
口①口② |----|
口口口口 |②---|
口口口口 |----|
17
口①①口 |①---|
口口口口 |----|
口口口口 |----|
口口口口 |----|
18
口口口口 |①---|
口口①口 |----|
口口①口 |----|
口口口口 |----|
19
口口口口 |①---|
口①口口 |----|
口①口口 |----|
口口口口 |----|
20
口口口口 |①---|
口口口① |----|
口口口① |----|
口口口口 |----|
21
口口口口 |①---|
①口口口 |----|
①口口口 |----|
口口口口 |----|
22
口口口口 |①---|
口①①口 |----|
口口口口 |----|
口口口口 |----|
23
口口口口 |①---|
口口口口 |----|
口①①口 |----|
口口口口 |----|
24
口①①口 |①---|
口口口口 |----|
口口口口 |----|
口口口口 |----|
25
口口口口 |①---|
口口口口 |----|
口口口口 |----|
口①①口 |----|
26
口口口口 |①---|
口口②① |----|
口口口口 |②---|
口口口口 |----|
27
②口口口 |①---|
口①口口 |----|
口口口口 |②---|
口口口口 |----|
28
口①口口 |①---|
口②口口 |----|
口口口口 |②---|
口口口口 |----|
29
口口口口 |①---|
口口口口 |----|
口①口口 |②---|
口口②口 |----|
30
口口口口 |①---|
口口口口 |----|
口口②① |②---|
口口口口 |----|
31
口口口口 |①---|
②口口口 |----|
口①口口 |②---|
口口口口 |----|
32
口①口口 |①---|
口②口口 |----|
口口口口 |②---|
口口口口 |----|
33
口口口口 |①---|
口口口口 |----|
口①口口 |②---|
口②②口 |----|
34
口口口口 |①---|
口①①口 |----|
口①①口 |----|
口口口口 |----|
35
口口口口 |①---|
①口口① |----|
口口口口 |----|
口口口口 |----|
36
口口口口 |①---|
口口口口 |----|
口①①口 |----|
口①①口 |----|
37
口口口口 |①---|
口口口口 |----|
①口口① |----|
口口口口 |----|
38
口口口口 |①---|
口①①口 |----|
口①①口 |----|
口口口口 |----|
39
口口口口 |①---|
①口口① |----|
口口口口 |----|
口口口口 |----|
40
口①①口 |①---|
口①①口 |----|
口口口口 |----|
口口口口 |----|
41
①口口① |①---|
口口口口 |----|
口口口口 |----|
口口口口 |----|
42
口口口口 |①---|
口口口① |----|
口口②① |②---|
口口口口 |----|
43
口口口口 |①---|
②口口口 |----|
口①口口 |②---|
口口口口 |----|
44
口①①口 |①---|
口口②口 |----|
口口口口 |②---|
口口口口 |----|
45
口口口口 |①---|
口口口口 |----|
口口①口 |②---|
口②口口 |----|
46
口口口口 |①---|
①口口口 |----|
①②口口 |②---|
口口口口 |----|
47
口口口口 |①---|
口口口② |----|
口口①口 |②---|
口口口口 |----|
48
②口口② |①---|
口①①口 |----|
口口口口 |②---|
口口口口 |----|
49
口口口口 |①---|
②口口② |----|
口①①口 |②---|
口口口口 |----|
50
①①①① |①---|
口口②口 |----|
口口口口 |②---|
口口口口 |----|
51
口口口口 |①---|
口口口口 |----|
口口①口 |②---|
口②口口 |----|
52
口口口口 |①---|
①口口口 |----|
①②口口 |②---|
口口口口 |----|
53
口口口口 |①---|
口口口② |----|
口口①口 |②---|
口口口口 |----|
54
口口口口 |①---|
口①①口 |----|
口口口口 |----|
口口口口 |----|
55
口口口口 |①---|
口口口口 |----|
口①①口 |----|
口口口口 |----|
56
口口口口 |①---|
①①①① |----|
口口口口 |----|
口口口口 |----|
57
口口口口 |①---|
③口口③ |②---|
②口口② |③---|
①口口① |----|
58
口①口② |①---|
口口口口 |----|
口口口口 |②---|
口口口口 |----|
59
口口口口 |①---|
口①口② |----|
口口口口 |②---|
口口口口 |----|
60
口口口口 |①---|
口口口口 |----|
口①口② |②---|
口口口口 |----|
61
口口口口 |①---|
口口口口 |----|
口口口口 |②---|
口①口② |----|
62
口口口口 |①---|
口口口口 |----|
口口口口 |②---|
②口①口 |----|
63
口口口口 |①---|
口口口口 |----|
②口①口 |②---|
口口口口 |----|
64
口口口口 |①---|
②口①口 |----|
口口口口 |②---|
口口口口 |----|
65
②口①口 |①---|
口口口口 |----|
口口口口 |②---|
口口口口 |----|
66
口口口口 |①---|
口①①口 |----|
口①①口 |----|
口口口口 |----|
67
口口口口 |----|
口口口口 |----|
口口口口 |----|
口口口口 |----|
68
口口口口 |①---|
①②口口 |----|
口口口口 |②---|
口口口口 |----|
69
口口口口 |①---|
口口①② |----|
口口口口 |②---|
口口口口 |----|
70
口口口口 |①---|
口口口口 |----|
口口②① |②---|
口口口口 |----|
71
口口口口 |①---|
口口口口 |----|
②①口口 |②---|
口口口口 |----|
72
口口口口 |①---|
口口①口 |----|
口口口口 |----|
口口口口 |----|
73
口口口口 |①---|
口①口口 |----|
口口口口 |----|
口口口口 |----|
74
口口口口 |----|
口口口口 |----|
口口口口 |----|
口口口口 |----|

accuracy: 99.5%
最終更新:2024年09月08日 17:12