アットウィキロゴ
ヒューマノイド
ずっと真夜中でいいのに。

ADVANCED

Level: 6
BPM: 159
Notes: 332

1
口口口口 |----|
口口口口 |----|
口口口口 |----|
口口口口 |----|
2
口口口⑤ |①---|
口口口④ |②---|
口①③口 |③---|
口口口② |④-⑤-|
3
口口口口 |--①-|
口①口口 |--②-|
口口②口 |--③-|
口③口口 |----|
4
①口口口 |①---|
口口口口 |②-③-|
口②口口 |----|
口③口口 |----|
5
口④口口 |①---|
口③口口 |②---|
口口口① |③-④-|
口口②口 |----|
6
⑤口口口 |①---|
④口口口 |②---|
口③①口 |③---|
②口口口 |④-⑤-|
7
口口口口 |--①-|
口口①口 |--②-|
口②口口 |--③-|
口口③口 |----|
8
口口口① |①---|
口口口口 |②-③-|
口口②口 |----|
口口③口 |----|
9
口⑧口⑦ |①-②-|
口⑥口⑤ |③-④-|
口④口③ |⑤-⑥-|
口②口① |⑦-⑧-|
10
口口口口 |①---|
④④口口 |②---|
②口③口 |③---|
口口①口 |④---|
11
口口口口 |①---|
口④④口 |②---|
口②口③ |③---|
口口口① |④---|
12
口口①口 |①---|
②口③口 |②---|
④④口口 |③---|
口口口口 |④---|
13
口口口① |①---|
口②口③ |②---|
④④口口 |③---|
口口口口 |④---|
14
口口口口 |①---|
口口④④ |②---|
口③口② |③---|
口①口口 |④---|
15
口口口口 |①---|
口④④口 |②---|
③口②口 |③---|
①口口口 |④---|
16
口①口口 |①---|
口③口② |②---|
口口④④ |③---|
口口口口 |④---|
17
①口①口 |①---|
口口口口 |----|
口口口口 |----|
口口口口 |----|
18
③③口口 |①---|
口口口口 |②---|
口②口口 |③---|
口口①口 |----|
19
口口③③ |①-②-|
口口口口 |--③-|
口口②口
口口①口

口口口口
口口口口
口口④口 |----|
口口口口 |--④-|
20
口②口口 |①---|
口口①口 |②---|
口③口口 |③---|
口口口④ |--④-|
21
口口②口 |①---|
口③口口 |②---|
口④口① |③-④-|
口口口口 |----|
22
口口③③ |①---|
口口口口 |②---|
口口②口 |③---|
口①口口 |----|
23
③③口口 |①-②-|
口口口口 |--③-|
口②口口
口①口口

口口口口
口口口口
口④口口 |----|
口口口口 |--④-|
24
口口②口 |①---|
口①口口 |②---|
口口③口 |③---|
④口口口 |--④-|
25
口②口口 |①---|
口口③口 |②---|
①口口口 |③---|
④④口口 |④---|
26
③③口口 |①---|
口口口口 |②---|
口②口口 |③---|
口口①口 |----|
27
口口③③ |①-②-|
口口口口 |--③-|
口口②口
口口①口

口口口口
口口口口
口口④口 |----|
口口口口 |--④-|
28
口②口口 |①---|
口口①口 |②---|
口③口口 |③---|
口口口④ |--④-|
29
口口②口 |①---|
口③口口 |②---|
口④口① |③-④-|
口口口口 |----|
30
口口③③ |①---|
口口口口 |②---|
口口②口 |③---|
口①口口 |----|
31
③③口口 |①-②-|
口口口口 |--③-|
口②口口
口①口口

口口口口
口口口口
口④口口 |----|
口口口口 |--④-|
32
口口②口 |①---|
口①口口 |②---|
口口③口 |③---|
④口口口 |--④-|
33
口②口口 |①---|
口口③口 |②---|
①口口口 |③---|
口④④口 |④---|
34
口口②口 |①---|
①口③① |----|
口口④口 |--②-|
口口口口 |③-④-|
35
口口口口 |----|
口口口口 |----|
口口口口 |----|
口口①口 |--①-|
36
口口口口 |①---|
口②口口 |②---|
口口①口
口口口口

③口口口
口口④口
口口⑤口 |③---|
口口口口 |④-⑤-|
37
口③口口 |--①-|
口口④口 |②---|
口②口口 |③---|
口①口口 |④---|
38
口口口口 |①---|
口口④口 |----|
①①③口 |--②-|
口口②口 |③-④-|
39
①口口① |--①-|
口②口口 |----|
口口口口 |----|
口口口口 |②---|
40
口口口口 |①---|
③口口口 |②---|
④口口① |③-④-|
⑤口②口 |⑤---|
41
口①①口 |①---|
口①①口 |----|
口口口口 |----|
口口口口 |----|
42
①⑥口① |①---|
口⑤口口 |②---|
口②④口 |③-④-|
口口③口 |⑤-⑥-|
43
口口口口 |--①-|
⑤口③② |②---|
④口口① |③---|
口口口口 |④-⑤-|
44
口口口口 |--①-|
口③口口 |②---|
口口②口 |③---|
口④①口 |④---|
45
口①①口 |①---|
④口⑤④ |②-③-|
口口③口 |④---|
口口②口 |⑤---|
46
口口口口 |①---|
口④口口 |----|
口③口口 |②---|
口①②口 |③-④-|
47
口口口口 |--①-|
口④①口 |②---|
口口②口 |③---|
③口口口 |④---|
48
口口口口 |①---|
口③口口 |②---|
④口①口 |③---|
口②口口 |④---|
49
口③③口 |①---|
①口口① |②---|
④②②④ |③---|
口口口口 |④---|
50
①口⑥① |①---|
口口⑤口 |②---|
口④②口 |③-④-|
口③口口 |⑤-⑥-|
51
口口口口 |--①-|
②③口⑤ |②---|
①口口④ |③---|
口口口口 |④-⑤-|
52
口口口口 |--①-|
口口③口 |②---|
口②口口 |③---|
口①④口 |④---|
53
口①①口 |①---|
口口口口 |②-③-|
口③口口
口②口口

口口⑥口
④口⑤④
口口口口 |④---|
口口口口 |⑤-⑥-|
54
③口口口 |①---|
②口⑤口 |----|
①口④① |②-③-|
口口口口 |④-⑤-|
55
口口口口 |--①-|
口①口口 |②---|
口②口口
口口口口

口口口口
⑤⑤④④
口口口口 |③--④|
口口③③ |--⑤-|
56
口口口口 |①---|
口口口② |----|
口①①③ |--②-|
口口口口 |③---|
57
④口口③ |①---|
口④③口 |②---|
口①②口 |③---|
①口口② |④---|
58
口口口口 |①---|
④④口口 |②---|
②口③口 |③---|
口口①口 |④---|
59
口口口口 |①---|
口④④口 |②---|
口②口③ |③---|
口口口① |④---|
60
④④①口 |①---|
口口③口 |②---|
②口口口 |③---|
口口口口 |④---|
61
口口口口 |①-②-|
口⑥口③ |③---|
口⑤口② |④-⑤-|
口④口① |⑥---|
62
口口口口 |①---|
口④④② |②---|
③口①口 |③---|
口口口口 |④---|
63
口口口口 |①---|
口④④口 |②---|
③口②口 |③---|
①口口口 |④---|
64
③口口③ |----|
④口口④ |①---|
口②②口 |②---|
口①①口 |③-④-|
65
口③③口 |--①-|
口②②口 |--②-|
①口口① |--③-|
口口口口 |----|
66
口口口⑤ |①---|
口口口④ |②---|
①口口口 |③---|
口③口② |④-⑤-|
67
口口口口 |--①-|
口①口口 |--②-|
口口②口 |--③-|
口③口口 |----|
68
①口口口 |①---|
口口口口 |②-③-|
口②口口 |----|
口③口口 |----|
69
口口口口 |①---|
口②口口 |----|
口口口① |②---|
口口口口 |----|
70
④口口口 |①---|
口口口口 |②---|
口③①口 |③---|
②口口口 |--④-|
71
口口口口 |----|
口口口口 |--①-|
口口口① |----|
口口口口 |----|
72
口口口口 |①---|
口口①口 |----|
口口口口 |----|
口口口口 |----|
73
口口口口 |①---|
②口口口 |----|
口①口口 |②---|
口口口口 |----|
74
口口口口 |----|
口口口口 |----|
口口口口 |----|
口口口口 |----|

accuracy: 99.5%
最終更新:2024年09月08日 17:12