アットウィキロゴ
ヒューマノイド
ずっと真夜中でいいのに。

EXTREME

Level: 9.4
BPM: 159
Notes: 668

1
口口口口 |----|
口口口口 |----|
口口口口 |----|
口口口口 |----|
2
口口口口 |①---|
口④②⑥ |②-③-|
③口口⑤ |④-⑤-|
①⑦口① |⑥-⑦-|
3
口口③口 |①-②-|
①④口口 |③-④-|
口⑤口口 |⑤-⑥-|
⑥口②⑥ |----|
4
④口⑤④ |①-②-|
口③口口 |③-④-|
口⑥口② |⑤-⑥-|
⑦①①⑦ |--⑦-|
5
⑥口口⑥ |①-②-|
③口口① |③-④-|
口⑤⑤口 |⑤-⑥-|
口④②口 |----|
6
口口口口 |①---|
⑥②④口 |②-③-|
⑤口口③ |④-⑤-|
①口⑦① |⑥-⑦-|
7
口③口口 |①-②-|
口口④① |③-④-|
口口⑤口 |⑤-⑥-|
⑥②口⑥ |----|
8
口⑥口② |①-②-|
⑤④③口 |③-④-|
口口口口 |--⑤-|
口①①口 |--⑥-|
9
⑧⑩⑨⑦ |①②③④|
⑥⑫⑪⑤ |⑤⑥⑦⑧|
④⑭⑬③ |⑨⑩⑪⑫|
②⑯⑮① |⑬⑭⑮⑯|
10
④口⑧⑤ |①②③④|
⑥口⑨口 |-⑤-⑥|
⑦⑪⑩③ |⑦-⑧⑨|
②⑫口① |⑩⑪⑫-|
11
口④⑦③ |①②③④|
⑥②⑧① |-⑤-⑥|
口⑩⑨⑤ |-⑦⑧⑨|
口⑪口口 |-⑩⑪-|
12
⑥口⑧⑤ |①②③④|
⑦③⑨④ |-⑤-⑥|
①⑪⑩② |⑦-⑧⑨|
口⑫口口 |⑩⑪⑫-|
13
口⑥口口 |①--②|
口⑤口① |--③-|
口④口② |-④--|
口口③口 |⑤-⑥-|
14
⑤口口口 |①②③④|
口口口⑥ |-⑤-⑥|
④口③口
口②口①

口⑧口口
口⑨口口
口⑩⑪⑦ |⑦-⑧⑨|
口口⑫口 |⑩⑪⑫-|
15
③⑦④口 |①②③④|
①⑧②⑥ |-⑤-⑥|
⑤⑨⑩口 |-⑦⑧⑨|
口口⑪口 |-⑩⑪-|
16
⑤⑧口⑥ |①②③④|
④⑨③⑦ |-⑤-⑥|
②⑩⑪① |⑦-⑧⑨|
口口⑫口 |⑩⑪⑫-|
17
⑤口口③ |①---|
④口口② |---②|
①口口① |③-④⑤|
口⑦⑥口 |--⑥⑦|
18
⑦⑥⑤口 |①②③④|
⑧④③口 |⑤⑥⑦⑧|
⑨②①口 |⑨---|
口⑩⑩口 |--⑩-|
19
④③③④ |①-②-|
②②口口 |③-④-|
口口①①
口口口口

口口口口
口口口口
口口⑤口 |----|
口口口口 |--⑤-|
20
口口①口 |①---|
口②口口 |②-③-|
口③口口 |④---|
口④⑤口 |--⑤-|
21
口③口口 |①-②-|
口②⑤口 |③-④-|
口口①④ |⑤-⑥-|
⑥口口口 |----|
22
口⑤⑥⑦ |①②③④|
口③④⑧ |⑤⑥⑦⑧|
口①②⑨ |⑨---|
口⑩⑩口 |--⑩-|
23
④③③④ |①-②-|
口口②② |③-④-|
①①口口
口口口口

口口口口
口口口口
口⑤口口 |----|
口口口口 |--⑤-|
24
口①口口 |①---|
口口②口 |②-③-|
口口③口 |④---|
口⑤④口 |--⑤-|
25
口口③口 |①-②-|
口⑤②口 |③-④-|
④①口⑥ |⑤-⑥-|
口⑦⑦口 |⑦---|
26
⑦⑥⑤口 |①②③④|
⑧④③口 |⑤⑥⑦⑧|
⑨②①口 |⑨-⑩-|
⑪⑫⑫⑩ |⑪-⑫-|
27
④③③④ |①-②-|
②②口口 |③-④-|
口口①①
口口口口

口口口口
口口口口
口口⑧口 |--⑤⑥|
⑦⑥⑤口 |⑦-⑧-|
28
口口①口 |①---|
⑥②口⑤ |②-③-|
口③口口 |④-⑤-|
口④⑦口 |⑥-⑦-|
29
口③口口 |①-②-|
口②口口 |③-④-|
口口①④
口口口口

口口口口
口口⑤口
⑨⑧⑦口 |⑤-⑥-|
⑥口口口 |⑦⑧⑨-|
30
口⑤⑥⑦ |①②③④|
口③④⑧ |⑤⑥⑦⑧|
口口口口
口①②口

口口口口
口口口口
口口口⑨ |⑨-⑩-|
⑩⑫⑫⑪ |⑪-⑫-|
31
④③③④ |①-②-|
口口②② |③-④-|
①①口口
口口口口

口口口口
口口口口
口⑧口口 |--⑤⑥|
口⑤⑥⑦ |⑦-⑧-|
32
口①口口 |①---|
⑤口②⑥ |②-③-|
口口③口 |④-⑤-|
口⑦④口 |⑥-⑦-|
33
口口③口 |①-②-|
口⑤②口 |③-④-|
④①⑦口 |⑤-⑥⑦|
口⑧⑧⑥ |--⑧-|
34
口口④④ |①---|
①⑤⑤① |--②-|
⑥⑥口② |③-④-|
口口口③ |⑤-⑥-|
35
口口口口 |--①-|
③口口① |--②-|
④口口② |③-④-|
口口⑤口 |--⑤-|
36
口口口口 |①---|
口①口口 |②---|
③口④② |③---|
口口⑤口 |④-⑤-|
37
口④⑤口 |--①-|
口③⑥口 |②-③-|
口②⑦口 |④-⑤-|
口①口口 |⑥-⑦-|
38
①口口① |①---|
④④口口 |--②-|
②⑤⑤口 |③-④-|
③口⑥⑥ |⑤-⑥-|
39
①口口① |--①-|
口②②口 |----|
①②②① |----|
口口口口 |②---|
40
口⑤③口 |①---|
②⑥④② |②--③|
②口⑦② |④-⑤-|
口①①口 |⑥--⑦|
41
⑥口⑥口 |①---|
口④口口 |②--③|
口③⑤口 |④-⑤-|
口①②口 |⑥---|
42
口口口口 |①---|
①口③① |②--③|
口口口口
①②②①

口⑤口口
⑥口口口
口口④口 |④-⑤-|
⑦口口口 |⑥-⑦-|
43
口⑤口口 |--①-|
⑥口③口 |②--③|
②口④① |④-⑤-|
⑦口口口 |⑥-⑦-|
44
口⑤④口 |①-②-|
口⑥③口 |③-④-|
⑦口口② |⑤-⑥-|
口⑧口① |⑦-⑧-|
45
①口⑤① |①---|
①⑥②① |②-③-|
④口④③ |④---|
④口④口 |⑤-⑥-|
46
口⑧⑧口 |①-②-|
③口⑦⑦ |③-④-|
口⑥⑥② |⑤-⑥-|
④①⑤⑤ |⑦-⑧-|
47
口口口① |①-②-|
口②④口 |③---|
③⑥口③ |④-⑤-|
⑤口⑤口 |--⑥-|
48
口口口口 |①---|
④口口口 |②--③|
③口⑤口 |④---|
口①⑥② |⑤--⑥|
49
②口口口 |①--②|
口口③③ |③--④|
口①④口
①口口口

口⑤⑤口
口口口口
口⑥口口 |⑤---|
口口口口 |⑥---|
50
口口口口 |①---|
①③口① |②--③|
①口口①
口②②口

口口⑤口
口口口⑥
口④口口 |④-⑤-|
口口口⑦ |⑥-⑦-|
51
口口⑤口 |--①-|
口③口⑥ |②--③|
①④口② |④-⑤-|
口口口⑦ |⑥-⑦-|
52
口④⑤口 |①-②-|
口③⑥口 |③-④-|
②⑧⑧⑦ |⑤-⑥-|
①口口口 |⑦-⑧-|
53
①口口① |①---|
口④⑤④ |②-③-|
②⑥口口 |④---|
口③口口 |⑤-⑥-|
54
口⑧⑧口 |①-②-|
⑦⑦口③ |③-④-|
②⑥⑥口 |⑤-⑥-|
⑤⑤①④ |⑦-⑧-|
55
①口口口 |①-②-|
口口口② |③-④-|
口口口③
口④口口

口口⑦口
口口⑥⑧
口⑤口口 |⑤-⑥⑦|
口口口口 |--⑧-|
56
⑧口口口 |①-②-|
⑥④⑦口 |③-④-|
②口⑤③ |⑤-⑥-|
口口口① |⑦-⑧-|
57
口⑤①① |①---|
口⑥④口 |②--③|
②②③口 |④-⑤-|
口口口⑦ |⑥-⑦-|
58
口口口⑤ |①②③④|
⑥口口口 |-⑤-⑥|
口③口④
①口②口

口口⑧口
口口⑨口
⑦⑪⑩口 |⑦-⑧⑨|
口⑫口口 |⑩⑪⑫-|
59
口④⑦③ |①②③④|
⑥②⑧① |-⑤-⑥|
口⑩⑨⑤ |-⑦⑧⑨|
口⑪口口 |-⑩⑪-|
60
⑥口口⑤ |①②③④|
口口口④ |-⑤-⑥|
③口口②
①口口口

口⑧口口
⑦口⑩⑫
⑪⑨口口 |⑦-⑧⑨|
口口口口 |⑩⑪⑫-|
61
口口口口 |①-②-|
③③⑥⑥ |③---|
⑤⑤②② |④-⑤-|
①①④④ |⑥---|
62
⑤口②口 |①②③④|
口①口⑥ |-⑤-⑥|
口口③口
④口口口

口⑧口口
口⑨口口
口⑩⑪⑦ |⑦-⑧⑨|
口口⑫口 |⑩⑪⑫-|
63
③⑦④口 |①②③④|
①⑧②⑥ |-⑤-⑥|
⑤⑨⑩口 |-⑦⑧⑨|
口口⑪口 |-⑩⑪-|
64
③③③③ |----|
③②②③ |①---|
①②②① |②---|
①④④① |③-④-|
65
③③③③ |--①-|
③②②③ |--②-|
①口口① |--③-|
口口口口 |----|
66
口口口口 |①---|
口口②口 |②-③-|
③①①口
①①①①

口口口口
口④口⑥
口口口⑤ |④-⑤-|
口⑦口口 |⑥-⑦-|
67
口口③口 |①-②-|
①④口口 |③-④-|
口⑤口口 |⑤-⑥-|
⑥口②⑥ |----|
68
④口⑤④ |①-②-|
口③口口 |③-④-|
口⑥口② |⑤-⑥-|
⑦①①⑦ |--⑦-|
69
⑥口口⑥ |①-②-|
③口口① |③-④-|
口⑤⑤口 |⑤-⑥-|
口④②口 |----|
70
口口口口 |①---|
⑥②④口 |②-③-|
⑤口口③ |④-⑤-|
口口⑦① |⑥-⑦-|
71
口③口口 |①-②-|
口口④① |③-④-|
口口⑤口 |⑤-⑥-|
⑥②口口 |----|
72
口口⑤口 |①-②-|
口②⑥① |③-④-|
口④口③ |--⑤-|
口口口口 |--⑥-|
73
口口口④ |①-②-|
口⑤口口 |--③-|
②口①口 |④---⑤-|
口③⑥口 |--⑥---|
74
口口口口 |①---|
口口口口 |----|
①口口口 |----|
口口口口 |----|

accuracy: 99.5%
最終更新:2024年09月08日 17:11