アットウィキロゴ
UNION
OxT

BASIC

Level: 2
BPM: 178
Notes: 112

1
口口口口 |----|
口口口口 |----|
口口口口 |----|
口口口口 |----|
2
口口口口 |①---|
口口口口 |----|
口口口口 |----|
口①口口 |----|
3
口口口口 |----|
口口口口 |----|
口口口口 |----|
口口口口 |----|
4
口口口口 |①---|
口口口口 |----|
口②②口 |----|
口口①口 |--②-|
5
口口口口 |----|
口口口口 |----|
①口口① |----|
口口口口 |--①-|
6
口口口口 |----|
①口口① |----|
口口口口 |----|
口口口口 |--①-|
7
口口口口 |----|
口口口口 |----|
口口口口 |----|
口口口口 |----|
8
口口口口 |①---|
②②口口 |----|
口①①口 |----|
口口口口 |--②-|
9
②口口② |----|
口口①① |--①-|
口口口口 |----|
口口口口 |--②-|
10
口口口口 |----|
口口口口 |----|
口口①口 |----|
口口口口 |--①-|
11
口口口口 |----|
口口口口 |----|
口①口口 |----|
口口口口 |--①-|
12
口口口口 |----|
口①口口 |----|
口口口口 |----|
口口口口 |--①-|
13
口口口口 |----|
口口①口 |----|
口口口口 |----|
口口口口 |--①-|
14
口口口口 |----|
口口口口 |----|
口①①口 |----|
口口口口 |--①-|
15
口口口口 |----|
口口口口 |----|
口口口口 |----|
口口口口 |----|
16
口口口口 |①---|
口①口口 |----|
口口口口 |----|
口口口口 |----|
17
口口口口 |----|
口口口口 |----|
口口口口 |----|
口口口口 |----|
18
口口口口 |①---|
口口口口 |----|
口①口口 |----|
口口口口 |----|
19
口口口口 |----|
口口口口 |----|
口口口口 |----|
口口口口 |----|
20
口口口口 |①---|
口口①口 |----|
口口口口 |----|
口口口口 |----|
21
口口口口 |----|
口口口口 |----|
口口口口 |----|
口口口口 |----|
22
口口口口 |①---|
口口口口 |----|
口口①口 |----|
口口口口 |----|
23
口口口口 |----|
口口口口 |----|
口口口口 |----|
口口口口 |----|
24
口口口口 |①---|
口口口① |----|
口口口口 |----|
口口口口 |----|
25
口口口口 |①---|
口口①口 |----|
口口口口 |----|
口口口口 |----|
26
口口口口 |①---|
口①口口 |----|
口口口口 |----|
口口口口 |----|
27
口口口口 |①---|
①口口口 |----|
口口口口 |----|
口口口口 |----|
28
口①①口 |①---|
口口口口 |----|
口口口口 |----|
口口口口 |----|
29
口口口口 |①---|
口①①口 |----|
口口口口 |----|
口口口口 |----|
30
口口口口 |①---|
口口口口 |----|
口①①口 |----|
口口口口 |----|
31
口口口口 |①---|
口口口口 |----|
口口口口 |----|
口①①口 |----|
32
口口口口 |①---|
口口口口 |----|
口口口口 |----|
①口口① |----|
33
口口口口 |①---|
口口口口 |----|
①②口口 |②---|
口口口口 |----|
34
口口口口 |①---|
口口口口 |----|
口口口口 |----|
口①①口 |----|
35
口口口口 |①---|
口口口口 |----|
口口②① |②---|
口口口口 |----|
36
口口口口 |①---|
口①①口 |----|
口口口口 |----|
口口口口 |----|
37
口口口口 |①---|
口口口口 |----|
口①①口 |----|
口口口口 |----|
38
口口口口 |①---|
①口口① |----|
口口口口 |----|
口口口口 |----|
39
口口口口 |----|
口口口口 |----|
①口口① |----|
口口口口 |--①-|
40
口口口口 |----|
①口口① |----|
口口口口 |----|
口口口口 |--①-|
41
口口口口 |----|
口口口口 |----|
口口口口 |----|
口口口口 |----|
42
口口口口 |①---|
②②口口 |----|
口①①口 |----|
口口口口 |--②-|
43
②口口② |----|
口口①① |--①-|
口口口口 |----|
口口口口 |--②-|
44
口口口口 |----|
口口口口 |----|
口口口口 |----|
口口口口 |----|
45
口口口口 |①---|
口口口口 |----|
①口口口 |②---|
口②口口 |----|
46
口口口口 |①---|
口口口口 |----|
口口口口
口口①口

口口口口
口口口口
口口口② |②---|
口③③口 |--③-|
47
口口口口 |----|
口口口口 |----|
①口口① |----|
口口口口 |--①-|
48
口口口口 |----|
①口口① |----|
口口口口 |----|
口口口口 |--①-|
49
口口口口 |----|
口口口口 |----|
口口口口 |----|
口口口口 |----|
50
口口口口 |①---|
口口②② |----|
口①①口 |----|
口口口口 |--②-|
51
②口口② |----|
①①口口 |--①-|
口口口口 |----|
口口口口 |--②-|
52
口口口口 |----|
口①口口 |----|
口①口口 |----|
口口口口 |--①-|
53
口口口口 |----|
口口①口 |----|
口口①口 |----|
口口口口 |--①-|
54
①口口① |----|
口口口口 |----|
口口口口 |----|
口口口口 |--①-|
55
口口口口 |----|
口口口口 |----|
①口口① |----|
口口口口 |--①-|
56
口口口口 |----|
口口口口 |----|
口口口口 |----|
口口口口 |----|
57
②口口口 |①---|
口①①口 |----|
口口口口 |②---|
口口口口 |----|
58
口口口口 |①---|
①口口口 |----|
②口口口 |②---|
口口口口 |----|
59
口口口口 |①---|
口②②口 |----|
口②②口 |----|
①口口口 |--②-|
60
口口口口 |----|
口口口口 |----|
口口口口 |----|
口口口口 |----|
61
口口口口 |----|
口口①口 |----|
口①口口 |----|
口口口口 |--①-|
62
口口口口 |----|
口口口口 |----|
口口口口 |----|
口口口口 |----|
63
口口口口 |----|
口①口口 |----|
口口①口 |----|
口口口口 |--①-|
64
口口口口 |----|
口口口口 |--①-|
口口口口 |----|
口②①口 |--②-|
65
口口口口 |----|
②②②② |--①-|
①口口① |----|
口口口口 |--②-|

accuracy: 99.5%
最終更新:2024年09月08日 17:38