アットウィキロゴ
UNION
OxT

ADVANCED

Level: 5
BPM: 178
Notes: 277

1
口口口口 |----|
口口口口 |----|
口口口口 |----|
口口口口 |----|
2
口口口口 |①---|
①口口口 |----|
口口口口 |②---|
②口口口 |----|
3
口口口口 |①---|
口口口① |----|
口口口口 |②---|
口口口② |----|
4
口口口口 |①---|
口③③口 |----|
①口口② |②---|
口口口口 |--③-|
5
口口口口 |----|
口①①口 |----|
口①①口 |----|
口口口口 |--①-|
6
口口④口 |----|
①③口② |①---|
口口口口 |②---|
口口口口 |③-④-|
7
口①口④ |--①-|
口口②④ |②-③-|
口③口口 |--④-|
口口口口 |----|
8
①口口口 |①---|
①口口口 |--②-|
口口口口
②口口②

口口口口
④口口口
口口口口 |--③-|
口③③口 |--④-|
9
④口口④ |--①-|
口口②口 |--②-|
口①口③ |--③-|
口口口口 |--④-|
10
口口口口 |----|
口①②口 |----|
口口口口 |--①-|
口口口口 |--②-|
11
口口口口 |--①-|
④口口④ |--②-|
口①②口 |--③-|
口③口口 |--④-|
12
口口口口 |----|
口口④口 |①---|
口口④口 |②---|
口③②① |③-④-|
13
①②③口 |----|
口④口口 |①---|
口④口口 |②---|
口口口口 |③-④-|
14
口口口口 |----|
口口口③ |①---|
口④④② |②---|
口口口① |③-④-|
15
口②②口 |--①-|
口①①口 |--②-|
口口口口 |----|
口口口口 |----|
16
口口口① |①---|
口口口② |----|
口口口口 |②---|
口口口口 |----|
17
口口口口 |①---|
口③口口 |----|
口口口① |②---|
口口口② |③---|
18
口口口口 |①---|
口口①口 |②---|
口②③口 |③---|
口④口口 |④---|
19
口口口口 |----|
口①①口 |----|
口口口口 |①---|
口口口口 |----|
20
①口口口 |①---|
②口口口 |----|
口口口口 |②---|
口口口口 |----|
21
口口口口 |①---|
口口口口 |----|
①口③口 |②---|
②口口口 |③---|
22
口口④口 |①---|
口③②口 |②---|
口①口口 |③---|
口口口口 |④---|
23
口口口口 |----|
口①①口 |----|
口口口口 |①---|
口口口口 |----|
24
①口口① |①---|
②口口② |----|
口口口口 |②---|
口口口口 |----|
25
口口口口 |①---|
口③口口 |----|
①口口① |②---|
②口口② |③---|
26
口口口口 |①---|
口口①口 |②---|
口②③口 |③---|
口④口口 |④---|
27
口口口口 |----|
口①①口 |----|
口口口口 |①---|
口口口口 |----|
28
①口口口 |①---|
口②②口 |----|
口口口口 |②---|
口口口口 |----|
29
口口口① |①---|
口②②口 |----|
口口口口 |②---|
口口口口 |----|
30
口①①口 |①---|
口②②口 |----|
口口口口 |②---|
口口口口 |----|
31
口口口口 |①---|
②口口② |----|
口①①口 |②---|
口口口口 |----|
32
口①口口 |①---|
口①口口 |----|
口口②口 |②---|
口口②口 |----|
33
口口口口 |①---|
①口口口 |②---|
口②口口 |③---|
口口③口 |----|
34
口口①口 |①---|
口口①口 |----|
口②口口 |②---|
口②口口 |----|
35
口口口口 |①---|
口口口① |②---|
口口②口 |③---|
口③口口 |----|
36
口①口口 |①---|
口①口口 |----|
口口②口 |②---|
口口②口 |----|
37
口口①口 |①---|
口口①口 |----|
口②口口 |②---|
口②口口 |----|
38
口口口口 |①---|
①口口① |----|
口口口口 |----|
口口口口 |----|
39
口口口口 |①---|
口②②口 |----|
口②②口 |----|
①①①① |--②-|
40
口口④口 |----|
①③口② |①---|
口口口口 |②---|
口口口口 |③-④-|
41
口①口④ |--①-|
口口②④ |②-③-|
口③口口 |--④-|
口口口口 |----|
42
①口口口 |①---|
①口口口 |--②-|
口口口口
②口口②

口口口口
④口口口
口口口口 |--③-|
口③③口 |--④-|
43
④口口④ |--①-|
口口②口 |--②-|
口①口③ |--③-|
口口口口 |--④-|
44
口口口口 |----|
口口口口 |----|
口③口口 |--①-|
口①②口 |②-③-|
45
⑤②①口 |①---|
②⑤口① |--②-|
口口口口 |--③-|
口③④口 |④-⑤-|
46
口口⑤① |----|
口④①口 |①---|
口口③口 |②-③-|
口②口口 |④-⑤-|
47
口口口口 |----|
口③③口 |①---|
①③③② |②---|
①口口② |--③-|
48
②④口① |----|
②口③① |①---|
口口口口 |②---|
口口口口 |③-④-|
49
④口①口 |--①-|
④②口口 |②-③-|
口口③口 |----|
口口口口 |④---|
50
口口口① |①---|
口口口① |--②-|
口口口口
②口口②

口口口口
口口④④
口口口口 |--③-|
口③③口 |--④-|
51
④④④④ |--①-|
③③口口 |--②-|
②②①① |--③-|
口口口口 |--④-|
52
口口口口 |----|
①口口口 |----|
口②口口 |--①-|
口口③口 |②-③-|
53
口口⑥口 |--①-|
口⑤口① |②-③-|
④口②口 |--④-|
口③口口 |⑤-⑥-|
54
口口口口 |----|
口②②口 |----|
口口口① |----|
口口口口 |①-②-|
55
①口②口 |----|
口④④口 |①---|
③口口口 |②---|
口口口口 |③-④-|
56
口②口① |----|
口口口口 |①---|
口口口③ |②---|
口口口口 |③---|
57
②口②口 |①---|
口口①口 |----|
口①口口 |②---|
口口口口 |----|
58
口口口口 |①---|
口①口① |----|
②口②口 |②---|
口口口口 |----|
59
口口口口 |①---|
口②②口 |----|
口②②口 |----|
口①口① |--②-|
60
口口口口 |----|
口口口口 |----|
口口口① |①---|
口口①口 |----|
61
口①口口 |①---|
①③②口 |----|
口口③口 |----|
口口口口 |②-③-|
62
口口口口 |----|
②口口② |----|
口口口口 |①---|
口①①口 |--②-|
63
口口口口 |----|
口①②口 |----|
口②口口 |----|
口口口口 |①-②-|
64
口口口② |----|
口口口口 |--①-|
口口口口 |----|
口①①口 |--②-|
65
⑤⑤⑤⑤ |--①-|
④①口④ |②-③-|
口口②口 |--④-|
口③口口 |--⑤-|

accuracy: 99.5%
最終更新:2024年09月08日 17:39