アットウィキロゴ
UNION
OxT

EXTREME

Level: 7
BPM: 178
Notes: 473

1
口口口口 |----|
口口口口 |----|
口口口口 |----|
口口口口 |----|
2
口口口① |①---|
①口口口 |----|
口口口口 |②---|
口②②口 |----|
3
①口口口 |①---|
口口口① |----|
口口口口 |②---|
口②②口 |----|
4
口口口① |①---|
①口口口 |----|
口口口口
口口口口

口口口⑤
口④⑤口
口⑤③② |②-③-|
⑤口口口 |④-⑤-|
5
④口⑤口 |----|
口⑥⑥③ |①-②-|
②⑥⑥口 |③-④-|
口口口① |⑤-⑥-|
6
口⑦⑥口 |--①-|
口⑦口⑤ |②-③-|
③口口① |④-⑤-|
口④②口 |⑥-⑦-|
7
④口口① |--①-|
②口口口 |②-③-|
口③③⑤ |--④-|
口口口口 |--⑤-|
8
口口口口 |①---|
③①口② |②-③-|
①③口口
口口口口

口口口口
口⑤口口
⑤口口口 |--④-|
口口口④ |--⑤-|
9
口④④口 |--①-|
②④④③ |--②-|
口②口① |--③-|
口口口口 |--④-|
10
口口口⑤ |----|
③⑥⑥口 |①-②-|
口④口① |③-④-|
口口②口 |⑤-⑥-|
11
口⑥①口 |--①-|
口⑤⑥② |②-③-|
④口③口 |--④-|
口口口口 |⑤-⑥-|
12
口口④口 |----|
口③③④ |①---|
口②②口 |②---|
口①①口 |③-④-|
13
口④口口 |----|
④③③口 |①---|
口②②口 |②---|
口①①口 |③-④-|
14
口口口口 |--①-|
⑥口⑦⑤ |②-③-|
④⑦口③ |④-⑤-|
②口口① |⑥-⑦-|
15
①④⑤② |--①-|
口口口口 |--②-|
口⑥③口 |③-④-|
②口口① |⑤-⑥-|
16
②口口口 |①---|
④口①① |②---|
口口口口 |③---|
口口③③ |④---|
17
口口口口 |①---|
口口①① |②---|
②口口口 |③---|
④④③③ |④---|
18
口口①① |①---|
口口③③ |②---|
②②口口 |③---|
④④口口 |④---|
19
口④⑤② |①---|
①口口口 |②---|
口⑥③口 |③-④-|
口口口口 |⑤-⑥-|
20
②口口口 |①---|
④口①口 |②---|
口口③① |③---|
口口口③ |④---|
21
口口③口 |①---|
口口①③ |②---|
②④口① |③---|
④口口口 |④---|
22
口④口口 |①---|
④②③口 |②---|
②口①③ |③---|
口口口① |④---|
23
口④⑤口 |①---|
口口口① |②---|
②⑥③口 |③-④-|
口口口口 |⑤-⑥-|
24
①口口② |①---|
③口①④ |②---|
口口③口 |③---|
口口口口 |④---|
25
口口口口 |①---|
口口口口 |②---|
①④③② |③---|
③口①④ |④---|
26
口④③口 |①---|
②口口① |②---|
③口口④ |③---|
口①②口 |④---|
27
②口口口 |①---|
口⑥⑦① |②-③-|
口④⑤口 |④-⑤-|
口口③口 |⑥-⑦-|
28
口①口口 |①---|
①⑥⑤口 |--②-|
口④③口 |③-④-|
口②口口 |⑤-⑥-|
29
口口①口 |①---|
口⑤⑥① |--②-|
口③④口 |③-④-|
口口②口 |⑤-⑥-|
30
①口①口 |①---|
②口口口 |②---|
口③口③ |③---|
口口口④ |④---|
31
口③口③ |①---|
②口口④ |②---|
①口①口 |③---|
口口口口 |④---|
32
口口口口 |①---|
口①③口 |②---|
①口口③ |③---|
口④②口 |④---|
33
口口口口 |①---|
①口口③ |②---|
口①③口 |③---|
④口②④ |④---|
34
口①②口 |①-②-|
⑤口口⑥ |③-④-|
口③④口 |⑤-⑥-|
⑦口口⑧ |⑦-⑧-|
35
口口口口 |①-②-|
口①②口 |③---|
③口口④ |④---|
口③④口 |----|
36
③①口口 |①---|
①③口② |②---|
口口②④ |③---|
口口④口 |④---|
37
口①③口 |①---|
①④②③ |②---|
口②④口 |③---|
口口口口 |④---|
38
①口口① |①---|
口口口口 |----|
①口口① |----|
口口口口 |----|
39
口口口口 |①---|
口①①口 |②-③-|
③口口口
口①①②

⑤口⑥口
口⑦⑦④
口⑦⑦口 |④-⑤-|
口口口口 |⑥-⑦-|
40
口⑦⑥口 |--①-|
口⑦口⑤ |②-③-|
③口口① |④-⑤-|
口④②口 |⑥-⑦-|
41
④口口① |--①-|
②口口口 |②-③-|
口③③⑤ |--④-|
口口口口 |--⑤-|
42
口口口口 |①---|
③①口② |②-③-|
①③口口
口口口口

口口口口
口⑤口口
⑤口口口 |--④-|
口口口④ |--⑤-|
43
口④④口 |--①-|
②④④③ |--②-|
口②口① |--③-|
口口口口 |--④-|
44
口口口口 |----|
口③口① |----|
口口②口 |--①-|
口口口口 |②-③-|
45
口口口① |①-②-|
口⑦②口 |③-④-|
⑥③⑦⑤ |--⑤-|
④口口口 |⑥-⑦-|
46
口口口① |--①-|
③口②口 |②-③-|
⑦④⑦⑤ |④-⑤-|
口口⑥口 |⑥-⑦-|
47
口⑥①口 |----|
⑥②③① |①-②-|
口④⑤③ |③-④-|
口口口⑤ |⑤-⑥-|
48
口口②① |--①-|
口口⑥口 |②---|
③口口⑥ |③-④-|
口④⑤口 |⑤-⑥-|
49
④口口口 |--①-|
①②⑤③ |②-③-|
口口③口 |----|
口口口口 |④-⑤-|
50
口口口口 |①---|
口口口口 |②-③-|
①口口口
口③口②

口④④口
口口口口
⑤口口⑤ |--④-|
口口⑤口 |--⑤-|
51
②④④② |--①-|
①口②① |--②-|
④口①④ |--③-|
③口口③ |--④-|
52
①口口② |----|
口③口口 |----|
口口③口 |--①-|
口口口口 |②-③-|
53
⑥口口口 |--①-|
口⑥③⑤ |②-③-|
④③⑥口 |--④-|
①口口② |⑤-⑥-|
54
口⑥口口 |----|
⑥口口⑤ |①-②-|
④口⑤③ |③-④-|
②口口① |⑤-⑥-|
55
口口⑦① |--①-|
⑥口①⑦ |②-③-|
④⑥口⑤ |④-⑤-|
②口口③ |⑥-⑦-|
56
口⑤口口 |--①-|
口⑦④口 |②-③-|
③口⑥④ |④-⑤-|
口①②⑥ |⑥-⑦-|
57
口口①口 |①---|
③口口① |--②-|
口②口⑤ |③---|
口口④口 |④-⑤-|
58
口口①口 |--①-|
口②口⑤ |②-③-|
口口③口 |④---|
口④口口 |--⑤-|
59
⑥①①口 |①-②-|
②⑥⑤口 |③-④-|
③口⑥⑤ |--⑤-|
口④口⑥ |--⑥-|
60
口口口口 |----|
①口口④ |----|
口②口口 |①-②-|
口口③口 |③-④-|
61
口口⑤② |--①-|
⑥口③口 |--②-|
①④口⑤ |③-④-|
口⑥口口 |⑤-⑥-|
62
口口口口 |--①-|
口⑤口③ |--②-|
⑥口④口 |③-④-|
②口口① |⑤-⑥-|
63
口⑥口口 |--①-|
口口⑤⑦ |②-③-|
⑥④口③ |④-⑤-|
口②⑦① |⑥-⑦-|
64
①⑥⑥④ |--①-|
口②⑤口 |②-③-|
口③③口 |--④-|
口口口口 |⑤-⑥-|
65
①⑤口⑤ |--①-|
⑤②⑤口 |②-③-|
④④③③ |--④-|
③③④④ |--⑤-|

accuracy: 99.5%
最終更新:2024年09月08日 17:39