アットウィキロゴ
WARNING×WARNING×WARNING
暁Records

BASIC

Level: 4
BPM: 172
Notes: 262

1
口口口口 |----|
口口口口 |----|
口口口口 |----|
口口口口 |----|
2
口口口口 |----|
口口口口 |----|
口口口口 |----|
口口口口 |----|
3
口口口口 |----|
口口口口 |----|
口口口口 |----|
口口口口 |----|
4
口口口口 |----|
口口口口 |①---|
口①①口 |----|
口口口口 |----|
5
口口口口 |①---|
①口口① |--②-|
口口口口 |----|
②口口② |----|
6
口②②口 |①---|
口口口口 |----|
①①口口 |②---|
口口口口 |----|
7
口口口口 |①---|
口口口口 |----|
口口①① |----|
口口口口 |----|
8
口口口口 |①---|
②②①① |----|
口口口口 |②---|
口口口口 |----|
9
口口口口 |①---|
口口口口 |----|
口口口口 |②---|
②①①② |----|
10
口②②口 |①---|
口口口口 |----|
口口①① |②---|
口口口口 |----|
11
口口口口 |①---|
口口口口 |----|
①①口口 |----|
口口口口 |----|
12
口口口口 |①---|
口①①口 |----|
口②②口 |②---|
口口口口 |----|
13
①①①① |①---|
口口口口 |----|
口口口口 |----|
口口口口 |----|
14
口口口口 |①---|
口口口口 |----|
①口口① |----|
口口口口 |----|
15
口口口② |①---|
口①①口 |----|
口口口口 |②---|
口口口口 |----|
16
口口口口 |①---|
口口口① |----|
口口②口 |②---|
口口口口 |----|
17
口口口口 |①---|
口口口口 |----|
口口②口 |②---|
口口①口 |----|
18
口口口口 |①---|
口口口① |----|
口口口② |②---|
口口口口 |----|
19
②口口口 |①---|
口①①口 |----|
口口口口 |②---|
口口口口 |----|
20
口口口口 |①---|
①口口口 |----|
口②口口 |②---|
口口口口 |----|
21
口口口口 |①---|
口口口口 |----|
口②口口 |②---|
口①口口 |----|
22
口口口口 |①---|
①口口口 |----|
②口口口 |②---|
口口口口 |----|
23
口口口② |①---|
口①①口 |----|
口口口口 |②---|
口口口口 |----|
24
口口口口 |①---|
口口口① |----|
口②②口 |②---|
口口口口 |----|
25
口口口口 |①---|
口口口口 |----|
口口②口 |②---|
口口①口 |----|
26
口口口口 |①---|
口口口① |----|
口②②口 |②---|
口口口口 |----|
27
口口口口 |①---|
口口口口 |----|
口②口口 |②---|
口①口口 |----|
28
口口口口 |①---|
①口口口 |----|
口②②口 |②---|
口口口口 |----|
29
口口口口 |①---|
口口口① |----|
口口②口 |②---|
口口口口 |----|
30
口口口口 |①---|
②口口口 |----|
口①口口 |②---|
口口口口 |----|
31
口①①口 |①---|
口口口口 |----|
口口口口 |----|
口口口口 |----|
32
口口口口 |①---|
口口口口 |----|
口①①口 |----|
口口口口 |----|
33
口口口口 |①---|
口口口口 |----|
①口口① |----|
口口口口 |----|
34
①口口① |①---|
口口口口 |----|
口口口口 |----|
口口口口 |----|
35
口口口口 |①---|
②口①① |----|
口口口口 |②---|
口口口口 |----|
36
口口口口 |①---|
口口口口 |----|
①①口② |②---|
口口口口 |----|
37
口口口口 |①---|
②②①① |----|
口口口口 |②---|
口口口口 |----|
38
口口口口 |①---|
口口口口 |----|
口①①口 |②---|
口②②口 |----|
39
口口口口 |①---|
②口口口 |----|
①口口口 |②---|
口口口口 |----|
40
口①②口 |①---|
口口口口 |----|
口口口口 |②---|
口口口口 |----|
41
口口口口 |①---|
口口口① |----|
口口口② |②---|
口口口口 |----|
42
口口口口 |①---|
口①①口 |----|
口①①口 |----|
口口口口 |----|
43
口口口口 |①---|
口口口口 |----|
②口口② |②---|
①口口① |----|
44
②口口② |①---|
①口口① |----|
口口口口 |②---|
口口口口 |----|
45
口口④口 |①---|
①②③口 |②---|
口口口口 |③---|
口口口口 |④---|
46
口口口口 |①---|
口口口口 |----|
口口①口 |----|
口口口口 |----|
47
口口口口 |①---|
①①②② |----|
口口口口 |②---|
口口口口 |----|
48
口口口口 |①---|
口口口口 |----|
②口口② |②---|
口①①口 |----|
49
口④口口 |①---|
口③②① |②---|
口口口口 |③---|
口口口口 |④---|
50
口口口口 |①---|
口口口口 |----|
口①口口 |----|
口口口口 |----|
51
口口口口 |①---|
②②①① |----|
口口口口 |②---|
口口口口 |----|
52
①①①① |①---|
口口口口 |----|
口口口口 |----|
口口口口 |----|
53
口口口口 |①---|
口口口口 |②---|
④③②① |③---|
口口口口 |④---|
54
②口口④ |①---|
①③①③ |②---|
口口口口 |③---|
口口口口 |④---|
55
口口口口 |①---|
口口口口 |----|
口①①口 |----|
口口口口 |----|
56
口口口口 |①---|
①①②② |----|
口口口口 |②---|
口口口口 |----|
57
口口口口 |①---|
口口口口 |----|
②口口② |②---|
口①①口 |----|
58
④口口② |①---|
③①③① |②---|
口口口口 |③---|
口口口口 |④---|
59
口口口口 |①---|
口口口口 |----|
口①①口 |----|
口口口口 |----|
60
口口口口 |①---|
②②①① |----|
口口口口 |②---|
口口口口 |----|
61
①①①① |①---|
口口口口 |----|
口口口口 |----|
口口口口 |----|
62
口口口口 |①---|
口口口口 |----|
①口口① |----|
口口口口 |----|
63
口口口口 |----|
口口口口 |①---|
口口口口 |----|
②①①② |②---|
64
口口口口 |----|
口口口口 |①---|
②①①② |----|
口口口口 |②---|
65
口口口口 |----|
②①①② |①---|
口口口口 |----|
口口口口 |②---|
66
①口口① |①---|
口口口口 |----|
口口口口 |----|
口口口口 |----|
67
口口口口 |①---|
①②④③ |②---|
口口口口 |③---|
口口口口 |④---|
68
①②④③ |①---|
口口口口 |②---|
口口口口 |③---|
口口口口 |④---|
69
口口口口 |①---|
口①①口 |----|
口②②口 |②---|
口口口口 |----|
70
①口口① |①---|
口口口口 |----|
②口口② |②---|
口口口口 |----|
71
①口口口 |①---|
口口口口 |----|
口②②口 |②---|
口口口口 |----|
72
口口口① |①---|
口口口口 |----|
口②②口 |②---|
口口口口 |----|
73
口①①口 |①---|
口口口口 |----|
口②②口 |②---|
口口口口 |----|
74
①①①① |①---|
口口口口 |----|
口口口口 |----|
口口口口 |----|
75
口口口口 |①---|
①②③④ |②---|
口口口口 |③---|
口口口口 |④---|
76
口口口口 |①---|
口口口口 |②---|
口③口① |③---|
④口②口 |④---|
77
口口口口 |①---|
口口口口 |②---|
①②③④ |③---|
口口口口 |④---|
78
④口②口 |①---|
口③口① |②---|
口口口口 |③---|
口口口口 |④---|
79
口口口口 |①---|
①②③④ |②---|
口口口口 |③---|
口口口口 |④---|
80
口口口口 |①---|
口口口口 |②---|
口③口① |③---|
④口②口 |④---|
81
口口口口 |①---|
口口口口 |②---|
①②③④ |③---|
口口口口 |④---|
82
④口②口 |①---|
口③口① |②---|
口口口口 |③---|
口口口口 |④---|
83
口④口口 |①---|
①口④① |②---|
口②②口 |③---|
③口口③ |④---|

accuracy: 99.5%
最終更新:2024年09月08日 17:45