アットウィキロゴ
WARNING×WARNING×WARNING
暁Records

ADVANCED

Level: 6
BPM: 172
Notes: 427

1
口口口口 |----|
口口口口 |----|
口口口口 |----|
口口口口 |----|
2
口口口口 |----|
口口口口 |----|
口口口口 |----|
口口口口 |----|
3
口口口口 |----|
口口口口 |----|
口口口口 |----|
口口口口 |----|
4
①口口① |----|
口口口口 |①---|
口口口口 |----|
②口口② |②---|
5
口口口口 |①---|
口①①口 |--②-|
口口口口 |----|
口②②口 |----|
6
①④④② |①---|
口①②口 |②---|
③口口口 |③---|
③口口口 |④---|
7
口口口口 |①---|
口口口口 |----|
口口口① |----|
口②②① |②---|
8
口口口口 |①---|
①②①② |--②-|
③口口口 |----|
③口口口 |③---|
9
口口口口 |①---|
口口口口 |----|
口口口① |----|
口口口① |----|
10
②④④① |①---|
口②①口 |②---|
口口口③ |③---|
口口口③ |④---|
11
口口口口 |①---|
口口口口 |----|
①口口口 |----|
①②②口 |②---|
12
口口口口 |①---|
口①口① |----|
口口口口 |②---|
②口②口 |----|
13
①①①① |①---|
口口口口 |----|
口口口口 |----|
口口口口 |----|
14
口口口口 |①---|
口口口口 |----|
①口口① |----|
口口口口 |----|
15
口①口口 |①---|
③口①口 |②---|
④②口口 |③---|
口口②口 |④---|
16
口口口口 |①---|
口口口① |②---|
口口口② |③---|
④③③④ |④---|
17
口口口口 |①---|
口①②口 |----|
口②①口 |②---|
口口口口 |----|
18
①口口口 |①---|
口口口② |②---|
③口口口 |③---|
口口口④ |④---|
19
口口①口 |①---|
口①口③ |②---|
口口②④ |③---|
口②口口 |④---|
20
口口口口 |①---|
①口口口 |②---|
②口口口 |③---|
④③③④ |④---|
21
口口口口 |①---|
口②①口 |----|
口①②口 |②---|
口口口口 |----|
22
口口口① |①---|
②口口口 |②---|
口口口③ |③---|
④口口口 |④---|
23
口①口口 |①---|
口口①口 |②---|
口②口口
口口②口

口口口口
③③④④
口口口口 |③---|
口口口口 |④---|
24
口口口口 |①---|
口口口口 |②---|
①①②② |③---|
④③③④ |④---|
25
口口口口 |①---|
口①②口 |----|
口②①口 |②---|
口口口口 |----|
26
①①口口 |①---|
口口②② |②---|
③口口④ |③---|
③口口④ |④---|
27
口口口口 |①---|
口②①口 |----|
口①②口 |②---|
口口口口 |----|
28
口口①① |①---|
②②口口 |②---|
④口口③ |③---|
④口口③ |④---|
29
口口口口 |①---|
②口口① |--②-|
口②①口 |----|
口口口口 |----|
30
口口口口 |①---|
口①①口 |②---|
口②②口 |③---|
口③③口 |----|
31
口口口口 |①---|
①口口口 |----|
口①口口 |----|
口口口口 |----|
32
口口口口 |①---|
口①口口 |----|
①口口口 |----|
口口口口 |----|
33
口口口口 |①---|
口口口① |----|
口口①口 |----|
口口口口 |----|
34
口口口口 |①---|
口口①口 |----|
口口口① |----|
口口口口 |----|
35
口口口口 |①---|
③口③口 |②---|
口②口口 |③---|
①口①口 |----|
36
口口口口 |①---|
口③口③ |②---|
口口②口 |③---|
口①口① |----|
37
口①口口 |①---|
②口②口 |②---|
口③口口 |③---|
④口④口 |④---|
38
口口①口 |①---|
口②口② |②---|
口口③口 |③---|
口④口④ |④---|
39
①①口② |①---|
③③口④ |②---|
口口口口 |③---|
口口口口 |④---|
40
口口口口 |①---|
口口口口 |②---|
①①口② |③---|
③③口④ |④---|
41
口口口口 |①---|
口①①口 |----|
口①①口 |----|
口口口口 |----|
42
①①①① |①---|
口口口口 |----|
口口口口 |----|
口口口口 |----|
43
口口口口 |①---|
口①②口 |----|
口①②口 |②---|
口口口口 |----|
44
①口口① |①---|
口口口口 |----|
口口口口 |②---|
②口口② |----|
45
①④④② |①---|
口①②口 |②---|
③口口口 |③---|
③口口口 |④---|
46
口口口口 |①---|
口口口口 |----|
口口口① |----|
口②②① |②---|
47
口口口口 |①---|
①②①② |--②-|
③口口口 |----|
③口口口 |③---|
48
口口口口 |①---|
口口口口 |----|
口口口①
口口口①

口口口口
口口口口
③②②③ |②---|
口口口口 |③---|
49
②④④① |①---|
口②①口 |②---|
口口口③ |③---|
口口口③ |④---|
50
口口口口 |①---|
口口口口 |----|
①口口口 |----|
①②②口 |②---|
51
口口口口 |①---|
口①口① |----|
口口口口 |②---|
②口②口 |----|
52
①①①① |①---|
口口口口 |----|
口口口口 |----|
口口口口 |----|
53
口口口口 |①---|
①①③③ |②---|
口口口口 |③---|
口②④口 |④---|
54
①⑥⑥③ |①-②-|
口②④口 |③-④-|
⑤口口口 |⑤---|
⑤口口口 |⑥---|
55
口口口口 |①---|
口口口口 |----|
口口口① |----|
口②②① |②---|
56
口口口口 |①-②-|
①②⑤④ |③-④-|
⑦③⑥口 |⑤-⑥-|
⑧口口口 |⑦-⑧-|
57
口口口口 |①---|
口口口口 |----|
③②②③ |②---|
口①口口 |③---|
58
①⑥⑥③ |①-②-|
口②④口 |③-④-|
⑤口口口 |⑤---|
⑤口口口 |⑥---|
59
口口口口 |①---|
口口口口 |----|
口口口① |----|
口②②① |②---|
60
口口口口 |①-②-|
①②口口 |③---|
口③口④ |④-⑤-|
口口⑥⑤ |⑥---|
61
①①①① |①---|
口口口口 |----|
口口口口 |----|
口口口口 |----|
62
口口口口 |①---|
口口口口 |----|
①口口① |----|
口口口口 |----|
63
口口口口 |①---|
口口口口 |②---|
④③④口 |③---|
②①②口 |④---|
64
口②①② |①---|
口④③④ |②---|
口口口口 |③---|
口口口口 |④---|
65
口口口口 |①---|
口口口口 |②---|
④③④口 |③---|
②①②口 |④---|
66
①口①口 |①---|
口口口口 |----|
口口口口 |----|
口口口口 |----|
67
口口口口 |①---|
口口口口 |②---|
④③④③ |③---|
①②①② |④---|
68
口④④口 |①---|
①②①② |②---|
口③口③ |③---|
口口口口 |④---|
69
③④④③ |①---|
口口口口 |②---|
口口口口 |③---|
②①①② |④---|
70
口口口口 |①---|
口口口口 |----|
口①①口 |----|
口①①口 |----|
71
口口口④ |①---|
②口口口 |②---|
口③③口 |③---|
口①①口 |④---|
72
口①①口 |①---|
口口口④ |②---|
②口口口 |③---|
口③③口 |④---|
73
口③①口 |①---|
口①③口 |②---|
口口口口 |③---|
②口口④ |④---|
74
②②②② |①---|
口口口口 |----|
口①①口 |②---|
口①①口 |----|
75
口口口口 |①-②-|
①⑤②④ |③---|
③口口⑥ |④-⑤-|
口口口口 |⑥---|
76
①口②口 |①-②-|
③口口口 |③---|
口口口⑥ |④-⑤-|
口⑤口④ |⑥---|
77
口口口① |①---|
口口②② |②---|
口口口③ |③---|
口口④④ |④---|
78
④④口口 |①---|
③口口口 |②---|
②②口口 |③---|
①口口口 |④---|
79
口口口口 |①-②-|
④②⑤① |③---|
⑥口口③ |④-⑤-|
口口口口 |⑥---|
80
口②口① |①-②-|
口口口③ |③---|
⑥口口口 |④-⑤-|
④口⑤口 |⑥---|
81
①口口口 |①---|
②②口口 |②---|
③口口口 |③---|
④④口口 |④---|
82
口口④④ |①---|
口口口③ |②---|
口口②② |③---|
口口口① |④---|
83
口口口口 |①---|
①①口口 |②---|
口②②口
口口口口

口④口口
④口口口
口口口口 |③---|
口口③③ |④---|

accuracy: 99.5%
最終更新:2024年09月08日 17:45