アットウィキロゴ
WARNING×WARNING×WARNING
暁Records

EXTREME

Level: 8
BPM: 172
Notes: 737

1
口口口口 |----|
口口口口 |----|
口口口口 |----|
口口口口 |----|
2
口口口口 |----|
口口口口 |----|
口口口口 |----|
口口口口 |----|
3
口口口口 |----|
口口口口 |----|
口口口口 |----|
口口口口 |----|
4
口口口口 |----|
口口①① |①---|
口口口口 |----|
口口②② |②---|
5
⑤口口④ |①---|
②⑦⑥口 |②-③-|
口③③口 |--④-|
①①口口 |⑤-⑥⑦|
6
⑥③①口 |①-②-|
口口口口 |③-④-|
⑥口⑤⑤ |⑤---|
④④②② |⑥---|
7
口①①① |①-②-|
口②口③ |③-④-|
口④口⑤ |⑤-⑥-|
口⑥⑧⑦ |⑦-⑧-|
8
①④①④ |①-②-|
口口口口 |③-④-|
②③口口
口口口口

口口口口
口⑦口口
⑧口⑥⑤ |⑤-⑥-|
口口口口 |⑦-⑧-|
9
口口③⑤ |①---|
口口⑤③ |②---|
④口口口 |③-④-|
②①①② |⑤---|
10
口①③⑥ |①-②-|
口口口口 |③-④-|
⑤⑤口⑥ |⑤---|
②②④④ |⑥---|
11
①①①口 |①-②-|
③口②口 |③-④-|
⑤口④口 |⑤-⑥-|
⑦⑧⑥口 |⑦-⑧-|
12
④口口① |①-②-|
口⑤②口 |③---|
口口口口 |④-⑤-|
⑥口口③ |⑥---|
13
口①①口 |①---|
①⑥⑦① |②-③-|
④口口⑤ |④-⑤-|
口②③口 |⑥-⑦-|
14
口②①口 |①-②-|
口口口口 |--③-|
口①②口
③口口③

口口口④
口口⑤口
口⑥口口 |--④-|
口口口口 |⑤-⑥-|
15
②①口口 |①---|
①②口口 |②---|
口口口口
口口口口

口口口口
⑥口⑤口
口④口③ |③-④-|
口口口口 |⑤-⑥-|
16
口⑥口口 |①-②-|
⑥口口口 |③-④-|
②口①⑤ |⑤---|
口④⑤③ |⑥---|
17
④口口口 |①---|
口⑥⑤① |②-③-|
④②③口 |④-⑤-|
口口⑦① |⑥-⑦-|
18
口口⑥⑥ |①-②-|
口口口④ |③-④-|
⑤②口③ |⑤---|
⑤①口口 |⑥---|
19
①②口③ |①---|
②①口口 |②---|
④口口口 |③---|
口口⑤口 |④-⑤-|
20
口口口口 |①-②-|
口口口口 |③-④-|
⑦③⑤① |⑤-⑥-|
⑥②口④ |⑦---|
21
口③③口 |①---|
④②口① |②---|
⑤②口① |③---|
口口口口 |④-⑤-|
22
⑤④口⑤ |①-②-|
口口③口 |③-④-|
口口②口 |⑤---|
⑥①口⑥ |⑥---|
23
③口①② |①---|
口⑤②① |②---|
口④口口 |③-④-|
口口⑥口 |⑤-⑥-|
24
口口口① |①-②-|
口口③口 |③-④-|
口口②口
口④口口

⑥口口⑥
口口口口
⑤口口⑤ |⑤---|
口口口口 |⑥---|
25
③口口⑤ |①---|
口①②口 |②---|
④口口⑥ |③-④-|
口②①口 |⑤-⑥-|
26
口⑥⑥口 |①-②-|
口①③口 |③-④-|
口⑤⑤口 |⑤---|
口②④口 |⑥---|
27
口③⑤口 |①---|
①口口② |②---|
口④⑥口 |③-④-|
②口口① |⑤-⑥-|
28
口口口口 |①-②-|
①⑥⑥③ |③-④-|
口口口口 |⑤---|
②⑤⑤④ |⑥---|
29
③①口口 |①---|
口口口口 |②-③-|
①③②⑤ |--④-|
④口口④ |--⑤-|
30
口口口口 |①-②-|
口口①④ |③-④-|
②口口口
口③口口

口⑥⑥口
口⑥⑥口
口口⑤口 |⑤---|
口口口口 |⑥---|
31
口口口① |①---|
口口口口 |--②-|
口①口口
口口口②

口口口③
口口口口
口口口口 |----|
口口口口 |③---|
32
①口口口 |①---|
口口口口 |--②-|
口口①口
②口口口

③口口口
口口口口
口口口口 |----|
口口口口 |③---|
33
口④①口 |①---|
③口口口 |②---|
口口口① |③---|
口③②口 |④---|
34
口口口① |①---|
口口①口 |----|
口①口口 |----|
口口口口 |----|
35
口③⑧④ |①-②-|
①⑦口② |③-④-|
口①⑥口 |⑤-⑥-|
口⑤口口 |⑦-⑧-|
36
口③⑧④ |①-②-|
口⑦口② |③-④-|
口①⑥口 |⑤-⑥-|
①⑤口口 |⑦-⑧-|
37
口⑤口口 |①-②-|
①口⑥口 |③-④-|
①⑦口④ |⑤-⑥-|
口③⑧② |⑦-⑧-|
38
口口④③ |①-②-|
①②⑧⑦ |③-④-|
口口口口 |⑤-⑥-|
⑤⑥口口 |⑦-⑧-|
39
⑤⑤口④ |①-②-|
①口口⑧ |③-④-|
①③口② |⑤-⑥-|
口⑦口⑥ |⑦-⑧-|
40
③口口④ |①-②-|
①③口口 |③-④-|
口①口②
口口口口

口口口口
⑦口口⑧
⑤⑦口口 |⑤-⑥-|
口⑤口⑥ |⑦-⑧-|
41
①口①口 |①---|
⑥①口⑦ |②-③-|
④口口⑤ |④-⑤-|
②口口③ |⑥-⑦-|
42
①口口① |①---|
口口口口 |②---|
口①①口
②口口②

口③④口
口⑤⑥口
口⑦⑧口 |③④⑤⑥|
口⑨⑩口 |⑦⑧⑨⑩|
43
①③③② |①---|
①口口口 |--②-|
口④⑤口 |③---|
口⑥⑦口 |④⑤⑥⑦|
44
①口口② |①--②|
③⑥口④ |--③-|
④口⑤③ |④---|
②口口① |⑤-⑥-|
45
⑥③①口 |①-②-|
⑥口口口 |③-④-|
⑥⑤⑤⑤ |⑤---|
④④②② |⑥---|
46
口①①① |①-②-|
口②口③ |③-④-|
口④口⑤ |⑤-⑥-|
口⑥⑧⑦ |⑦-⑧-|
47
①④①④ |①-②-|
口口口口 |③-④-|
②③口口
口口口口

口口口口
口⑦口口
⑧口⑥⑤ |⑤-⑥-|
口口口口 |⑦-⑧-|
48
口口口口 |①---|
口④⑥口 |②---|
口⑤③口 |③-④-|
②①①② |⑤-⑥-|
49
口①③⑥ |①-②-|
口口口⑥ |③-④-|
⑤⑤⑤⑥ |⑤---|
②②④④ |⑥---|
50
①①①口 |①-②-|
③口②口 |③-④-|
⑤口④口 |⑤-⑥-|
⑦⑧⑥口 |⑦-⑧-|
51
④口口① |①-②-|
口⑤②口 |③---|
⑥口口③ |④-⑤-|
⑥口口③ |⑥---|
52
③①①② |①---|
①口口① |②---|
口口口口 |③---|
④口口口 |④---|
53
口口口口 |①-②-|
⑦⑤③① |③-④-|
⑧⑥④② |⑤-⑥-|
⑦⑤③① |⑦-⑧-|
54
②④①③ |①-②-|
口⑥⑥⑤ |③-④-|
口口③① |⑤---|
口⑥⑤⑤ |⑥---|
55
②口①① |①---|
口⑥⑦③ |②-③-|
④口①① |④-⑤-|
口口口⑤ |⑥-⑦-|
56
①④①④ |①-②-|
口口口口 |③-④-|
③②⑤⑥ |⑤-⑥-|
口⑦⑧口 |⑦-⑧-|
57
口口口口 |①---|
④①①③ |②---|
口口口口 |③---|
②③④② |④---|
58
③①④② |①-②-|
⑤⑥⑥口 |③-④-|
①③口口 |⑤---|
⑤⑤⑥口 |⑥---|
59
①①口② |①---|
③⑦⑥口 |②-③-|
①①口④ |④-⑤-|
⑤口口口 |⑥-⑦-|
60
口①口① |①-②-|
口⑦⑧② |③-④-|
⑥④③口 |⑤-⑥-|
⑤口⑤口 |⑦-⑧-|
61
①①①⑥ |①---|
口口⑤口 |②-③-|
口④口口 |--④-|
②口口③ |⑤-⑥-|
62
③口口口 |①-②-|
①④⑤② |--③-|
②⑥⑦① |--④⑤|
口⑧⑨③ |⑥⑦⑧⑨|
63
②②④④ |①---|
②口口④ |②---|
口口口口 |③---|
①口口③ |④---|
64
①口④④ |①---|
口口口④ |②---|
②口口口 |③---|
②②口③ |④---|
65
②②口③ |①---|
②口口口 |②---|
口口口④ |③---|
①口④④ |④---|
66
②①①② |①---|
③①口④ |②---|
③口口④ |③---|
口口口口 |④---|
67
③③⑥⑥ |①-②-|
③口口⑥ |③---|
口⑤②口 |④-⑤-|
①①④④ |⑥---|
68
①①⑤口 |①-②-|
口口②⑤ |③---|
③口口④ |④---|
③③④④ |⑤---|
69
口③④口 |①---|
③口④④ |②---|
①口口② |③---|
口①②口 |④---|
70
口口口口 |①-②-|
④②口④ |③---|
①①③口 |④---|
口①口口 |----|
71
口③④口 |①---|
③口③④ |②---|
②①口① |③---|
口②①口 |④---|
72
③口③④ |①---|
口③④口 |②---|
口②①口 |③---|
②①口① |④---|
73
口③④口 |①---|
③口③④ |②---|
②①口① |③---|
口②①口 |④---|
74
口口口口 |①-②-|
口口口口 |③---|
②①①③
①口口①

④口⑤④
⑤口口⑤
口⑤口口 |④---|
口口口口 |⑤---|
75
⑥口⑦⑤ |①-②-|
⑧口⑤口 |③-④-|
④口③① |⑤-⑥-|
②口①口 |⑦-⑧-|
76
⑥口⑦⑤ |①-②-|
⑧口⑤口 |③-④-|
④口③① |⑤-⑥-|
②口①口 |⑦-⑧-|
77
⑧口⑦⑤ |①-②-|
⑥口⑤⑦ |③-④-|
④口③① |⑤-⑥-|
②口①③ |⑦-⑧-|
78
口②⑦⑤ |①-②-|
口④⑦⑤ |③-④-|
口⑥③① |⑤-⑥-|
口⑧③① |⑦-⑧-|
79
⑥口⑦⑤ |①-②-|
⑧口⑤口 |③-④-|
④口③① |⑤-⑥-|
②口①口 |⑦-⑧-|
80
⑥口⑦⑤ |①-②-|
⑧口⑤口 |③-④-|
④口③① |⑤-⑥-|
②口①口 |⑦-⑧-|
81
⑧口⑦⑤ |①-②-|
⑥口⑤⑦ |③-④-|
④口③① |⑤-⑥-|
②口①③ |⑦-⑧-|
82
口②⑦⑤ |①-②-|
口④⑦⑤ |③-④-|
口⑥③① |⑤-⑥-|
口⑧③① |⑦-⑧-|
83
⑦口口⑦ |①-②-|
⑤⑦⑥⑤ |③-④-|
③④⑦③ |⑤-⑥-|
①口②① |⑦---|

accuracy: 99.5%
最終更新:2024年09月08日 17:46